蓝光高清网

搜索
开启左侧

素描簿 4k.Sketchbook.S01.2160p.DSNP.WEB-DL.x265.10bit.HDR.DDP5.1-4k纪录片下载-14.96 GB

蓝鸟 发表于 7 天前 | 显示全部楼层 |阅读模式
素描簿 豆瓣评分: 无评分

状态:第一季(完结)
上映时间:2022-04-27
类型:纪录 
地区:美国
导演:未知
主演:埃里克·古德伯格 / 马克·亨 / Jin Kim / Samantha Vilfort
画质标准:4K(3840x2160) 封装音轨:5.1声道 音轨编码:其他DD
剧情简介
  这部纪录片系列将我们带到办公桌前,走进才华横溢的艺术家和动画师的生活。每一集都专注于一位艺术家,教我们如何从华特迪士尼动画工作室的电影中画出一个标志性人物....
影片参数
素描簿4k.Sketchbook.S01.2160p.DSNP.WEB-DL.x265.10bit.HDR.DDP5.1-4k纪录片信息
Video
ID : 1
Format : HEVC
Format/Info : High Efficiency Video Coding
Format profile : Main 10@L5@High
HDR format : SMPTE ST 2086, HDR10 compatible
Codec ID : V_MPEGH/ISO/HEVC
Duration : 22 min 11 s
Bit rate : 16.3 Mb/s
Width : 3 840 pixels
Height : 2 160 pixels
Display aspect ratio : 16:9
Frame rate mode : Constant
Frame rate : 23.976 (24000/1001) FPS
Color space : YUV
Chroma subsampling : 4:2:0
Bit depth : 10 bits
Bits/(Pixel*Frame) : 0.082
Stream size : 2.52 GiB (98%)
Language : English
Default : Yes
Forced : No
Color range : Limited
Color primaries : BT.2020
Transfer characteristics : PQ
Matrix coefficients : BT.2020 non-constant
Mastering display color primaries : Display P3
Mastering display luminance : min: 0.0010 cd/m2, max: 1000 cd/m2


Text #13
ID : 15
Format : UTF-8
Codec ID : S_TEXT/UTF8
Codec ID/Info : UTF-8 Plain Text
Duration : 21 min 39 s
Bit rate : 76 b/s
Count of elements : 274
Stream size : 12.1 KiB (0%)
Title : Korean
Language : Korean
Default : No
Forced : No


Text #14
ID : 16
Format : UTF-8
Codec ID : S_TEXT/UTF8
Codec ID/Info : UTF-8 Plain Text
Duration : 21 min 39 s
Bit rate : 71 b/s
Count of elements : 250
Stream size : 11.4 KiB (0%)
Title : Nederlands
Language : Dutch
Default : No
Forced : No


Text #15
ID : 17
Format : UTF-8
Codec ID : S_TEXT/UTF8
Codec ID/Info : UTF-8 Plain Text
Duration : 21 min 39 s
Bit rate : 63 b/s
Count of elements : 263
Stream size : 10.0 KiB (0%)
Title : Norsk
Language : Norwegian
Default : No
Forced : No


Text #16
ID : 18
Format : UTF-8
Codec ID : S_TEXT/UTF8
Codec ID/Info : UTF-8 Plain Text
Duration : 21 min 39 s
Bit rate : 69 b/s
Count of elements : 267
Stream size : 11.0 KiB (0%)
Title : Polski
Language : Polish
Default : No
Forced : No


Text #17
ID : 19
Format : UTF-8
Codec ID : S_TEXT/UTF8
Codec ID/Info : UTF-8 Plain Text
Duration : 21 min 39 s
Bit rate : 65 b/s
Count of elements : 265
Stream size : 10.4 KiB (0%)
Title : Português (Brasil)
Language : Portuguese
Default : No
Forced : No


Text #18
ID : 20
Format : UTF-8
Codec ID : S_TEXT/UTF8
Codec ID/Info : UTF-8 Plain Text
Duration : 21 min 39 s
Bit rate : 69 b/s
Count of elements : 265
Stream size : 11.0 KiB (0%)
Title : Português
Language : Portuguese
Default : No
Forced : No


Text #19
ID : 21
Format : UTF-8
Codec ID : S_TEXT/UTF8
Codec ID/Info : UTF-8 Plain Text
Duration : 21 min 39 s
Bit rate : 77 b/s
Count of elements : 263
Stream size : 12.3 KiB (0%)
Title : Romană
Language : Romanian
Default : No
Forced : No


Text #20
ID : 22
Format : UTF-8
Codec ID : S_TEXT/UTF8
Codec ID/Info : UTF-8 Plain Text
Duration : 21 min 39 s
Bit rate : 71 b/s
Count of elements : 267
Stream size : 11.4 KiB (0%)
Title : Slovenčina
Language : Slovak
Default : No
Forced : No


Text #21
ID : 23
Format : UTF-8
Codec ID : S_TEXT/UTF8
Codec ID/Info : UTF-8 Plain Text
Duration : 21 min 39 s
Bit rate : 72 b/s
Count of elements : 263
Stream size : 11.5 KiB (0%)
Title : Svenska
Language : Swedish
Default : No
Forced : No


Text #22
ID : 24
Format : UTF-8
Codec ID : S_TEXT/UTF8
Codec ID/Info : UTF-8 Plain Text
Duration : 21 min 39 s
Bit rate : 78 b/s
Count of elements : 265
Stream size : 12.5 KiB (0%)
Title : Türkçe
Language : Turkish
Default : No
Forced : No


Text #23
ID : 25
Format : UTF-8
Codec ID : S_TEXT/UTF8
Codec ID/Info : UTF-8 Plain Text
Duration : 21 min 39 s
Bit rate : 56 b/s
Count of elements : 270
Stream size : 9.01 KiB (0%)
Title : Chinese (Traditional)
Language : Chinese
Default : No
Forced : No


Text #24
ID : 26
Format : UTF-8
Codec ID : S_TEXT/UTF8
Codec ID/Info : UTF-8 Plain Text
Duration : 21 min 39 s
Bit rate : 56 b/s
Count of elements : 270
Stream size : 8.95 KiB (0%)
Title : Chinese (Simplified)
Language : Chinese
Default : No
Forced : No


Text #25
ID : 27
Format : UTF-8
Codec ID : S_TEXT/UTF8
Codec ID/Info : UTF-8 Plain Text
Duration : 21 min 39 s
Bit rate : 57 b/s
Count of elements : 270
Stream size : 9.06 KiB (0%)
Title : Chinese (Hong Kong)
Language : Chinese
Default : No
Forced : No

蓝光高清网提示您 点击下方附件名称 即可开始下载


多版本下载时请注意区分


素描簿4k.Sketchbook.S01.2160p.DSNP.WEB-DL.x265.10bit.HDR.DDP5.1-4k纪录片下载

素描簿4k.Sketchbook.S01.2160p.DSNP.WEB-DL.x265.10bit.HDR.DDP5.1【4k HDR 14.96 GB】

素描簿4k.Sketchbook.S01.2160p.DSNP.WEB-DL.x265.10bit.HDR.DDP5.1-KOGi.torrent ( 19.71 KB )



素描簿4k.Sketchbook.S01.2160p.DSNP.WEB-DL.DDP5.1.DV.MP4.x265【4k HDR 14.98 GB】

素描簿4k.Sketchbook.S01.2160p.DSNP.WEB-DL.DDP5.1.DV.MP4.x265-DVSUX.torrent ( 19.85 KB )



素描簿4k.Sketchbook.S01.2160p.DSNP.WEB-DL.DDP5.1.DV.MKV.x265【4k HDR 14.97 GB】

素描簿4k.Sketchbook.S01.2160p.DSNP.WEB-DL.DDP5.1.DV.MKV.x265-KOGi.torrent ( 19.73 KB )


加入蓝光高清网VIP会员  无限制下载本站所有资源---点这里

资源下载、资源播放、字幕使用、无法下载等常见问题---点这里
回复

使用道具 举报

全部回复0 显示全部楼层

发表回复

您需要登录后才可以回帖 登录 | 立即注册

本版积分规则

联系客服 关注微信 下载APP 返回顶部 返回列表