本站已运行

蓝光高清网

搜索

[剧情] 窃听风云[共3部合集][国粤英多音轨/繁英字幕].Overheard.Trilogy.2009-2014.BluRay.1080p.2Audio.DTS-HD.MA.7.1.x265.10bit-ALT 47.18GB

蓝鸟 发表于 2022-5-13 08:32:01 | 显示全部楼层 |阅读模式

窃听风云[共3部合集][国粤英多音轨/繁英字幕].Overheard.Trilogy.2009-2014.BluRay.1080p.2Audio.DTS-HD.MA ...

窃听风云[共3部合集][国粤英多音轨/繁英字幕].Overheard.Trilogy.2009-2014.BluRay.1080p.2Audio.DTS-HD.MA ...


译  名 窃听风云 / Overheard
片  名 竊聽風雲
年  代 2009
产  地 中国香港 / 中国大陆 / 新加坡
类  别 剧情 / 动作 / 惊悚
语  言 粤语 / 汉语普通话
上映日期 2009-07-24(中国大陆) / 2009-07-30(中国香港)
豆瓣评分 7.6/10 (264736人评价)
片  长 100分钟(香港)
导  演 麦兆辉 Alan Mak
       庄文强 Felix Chong
编  剧 庄文强 Felix Chong
       麦兆辉 Alan Mak
演  员 刘青云 Sean Lau
       古天乐 Louis Koo
       吴彦祖 Daniel Wu
       张静初 Jingchu Zhang
       方中信 Alex Fong
       王敏德 Michael Wong
       李子雄 Waise Lee
       陈伟霆 William Chan
       陆诗韵 Sharon Luk
       袁富华 Fu-wah Yuen
       陈浩 Hao Chen
       黄子雄 Geoffrey Wong Chi-Hung  
       骆应钧 Ying Kwan Lok
       林嘉华 Dominic Lam
       杨羚 Ling Yeung
       朱慧敏 Queenie Chu
       欧锦棠 Stephen Au
       邹凯光 Matt Chow
       方平 Henry Fong
       姜广涛 Guangtao Jiang
       于冬 Dong Yu
       林明杰 Eric Lin
       林炳坤 Bingkun Lin
       尔冬升 Tung-shing Yee
       宋岱 Dai Song
       梁智强 Jack Neo
       潘耀明 Anthony Pun
       陈国雄 Kwok Hung Chan
       文念中 Lim Chung Man
       黄斌 Ronald Wong
简  介
  情报科窃听小组三兄弟情同手足,梁俊义(刘青云 饰)正直而又懦弱,在个人感情问题上托泥带水;杨真(古天乐 饰)家境窘困,不仅要应付身患白血病儿子的随时可能出现的突发情况,而且自己也病入膏肓,命不久矣;林一祥(吴彦祖 饰)年轻有为,满怀雄心,如今又“嫁入豪门”,前途不可限量。                                    
                                三兄弟在负责调查上市公司“风华国际”涉嫌内幕交易案起始,通力合作,出色的完成了布置各种偷听及监视仪器的工作。在继续的监听过程中意外获得一则情报,巨额利润诱惑之下,三人遂起贪念,在风起云涌的股市大赚一笔。事后三人又恐事情败露,利用职务之便销毁罪证。                                    
                                正当三人以为这件事平息之际,却不曾想风云再起,一只意想不到的黑手往他们袭来,三人陷入劫境,连遭杀戮,最终悲情收场。                                    
                                “三大型男”挑战极限,两大班底(《无间道》、《门徒》)共同打造,一段悲情感人至深。
获奖情况 (共11项)
  第29届香港电影金像奖 (2010)
  最佳电影(提名)
  最佳导演(提名)
  最佳编剧(提名)
  最佳男主角(提名)
   └──刘青云
  最佳男配角(提名)
   └──方中信
  最佳剪接(提名)
  第4届亚洲电影大奖 (2010)
  最佳剪接(提名)
  第10届华语电影传媒大奖 (2010)
  百家传媒年度致敬电影(提名)
  最佳电影(提名)
  最佳导演(提名)
  最佳编剧




影片参数
  1. 合集文件列表:

  2. 1.Overheard.2.2011.BluRay.1080p.2Audio.DTS-HD.MA.5.1.x265.10bit-ALT.mkv 18.32GB

  3. 2.Overheard.3.2014.BluRay.1080p.2Audio.TrueHD.Atmos.7.1.x265.10bit-ALT.mkv 17.70GB

  4. 3.Overheard.2009.BluRay.1080p.2Audio.DTS-HD.MA.7.1.x265.10bit-ALT.mkv 11.17GB

复制代码



影片参数
  1. ##### MediaInfo ######
  2. General
  3. Unique ID                                : 202417137031864436051840670584262131450 (0x98481F5F381FC43040524DE0757C7EFA)
  4. Complete name                            : Overheard.2.2011.BluRay.1080p.2Audio.DTS-HD.MA.5.1.x265.10bit-BeiTai.mkv
  5. Format                                   : Matroska
  6. Format version                           : Version 4
  7. File size                                : 18.3 GiB
  8. Duration                                 : 1 h 59 min
  9. Overall bit rate mode                    : Variable
  10. Overall bit rate                         : 22.0 Mb/s
  11. Encoded date                             : UTC 2020-07-14 04:48:38
  12. Writing application                      : mkvmerge v48.0.0 (''Fortress Around Your Heart'') 64-bit
  13. Writing library                          : libebml v1.4.0 + libmatroska v1.6.0
  14. Video
  15. ID                                       : 1
  16. Format                                   : HEVC
  17. Format/Info                              : High Efficiency Video Coding
  18. Format profile                           : Main [email protected]@High
  19. Codec ID                                 : V_MPEGH/ISO/HEVC
  20. Duration                                 : 1 h 59 min
  21. Bit rate                                 : 15.8 Mb/s
  22. Width                                    : 1 920 pixels
  23. Height                                   : 816 pixels
  24. Display aspect ratio                     : 2.35:1
  25. Frame rate mode                          : Constant
  26. Frame rate                               : 24.000 FPS
  27. Color space                              : YUV
  28. Chroma subsampling                       : 4:2:0
  29. Bit depth                                : 10 bits
  30. Bits/(Pixel*Frame)                       : 0.420
  31. Stream size                              : 13.2 GiB (72%)
  32. Title                                    : HEVC, [email protected]@High, 24 fps @ 15778 kbps
  33. Writing library                          : x265 3.3+1-g396395b2b:[Windows][GCC 9.2.0][64 bit] 10bit
  34. Encoding settings                        : cpuid=538751111039 / frame-threads=5 / numa-pools=44,44 / wpp / pmode / pme / no-psnr / no-ssim / log-level=2 / input-csp=1 / input-res=1920x816 / interlace=0 / total-frames=171903 / level-idc=51 / high-tier=1 / uhd-bd=0 / ref=5 / no-allow-non-conformance / no-repeat-headers / annexb / no-aud / no-hrd / info / hash=0 / no-temporal-layers / open-gop / min-keyint=24 / keyint=240 / gop-lookahead=0 / bframes=6 / b-adapt=2 / b-pyramid / bframe-bias=0 / rc-lookahead=40 / lookahead-slices=0 / NTM4NzU=uuDQuD2mJt9fsCf / scenecut=40 / hist-scenecut=0 / radl=0 / no-splice / no-intra-refresh / ctu=32 / min-cu-size=8 / no-rect / no-amp / max-tu-size=32 / tu-inter-depth=3 / tu-intra-depth=3 / limit-tu=4 / rdoq-level=2 / dynamic-rd=0.00 / no-ssim-rd / signhide / no-tskip / nr-intra=0 / nr-inter=0 / no-constrained-intra / no-strong-intra-smoothing / max-merge=4 / limit-refs=1 / limit-modes / me=3 / subme=4 / merange=25 / temporal-mvp / no-frame-dup / no-hme / weightp / weightb / no-analyze-src-pics / deblock=-3:-3 / no-sao / no-sao-non-deblock / rd=6 / selective-sao=0 / no-early-skip / rskip / no-fast-intra / no-tskip-fast / no-cu-lossless / b-intra / no-splitrd-skip / rdpenalty=0 / psy-rd=2.00 / psy-rdoq=1.00 / no-rd-refine / no-lossless / cbqpoffs=0 / crqpoffs=0 / rc=crf / crf=17.0 / qcomp=0.65 / qpstep=4 / stats-write=0 / stats-read=0 / vbv-maxrate=80000 / vbv-bufsize=80000 / vbv-init=0.9 / crf-max=0.0 / crf-min=0.0 / ipratio=1.40 / pbratio=1.30 / aq-mode=2 / aq-strength=0.85 / cutree / zone-count=0 / no-strict-cbr / qg-size=32 / no-rc-grain / qpmax=69 / qpmin=0 / no-const-vbv / sar=1 / overscan=0 / videoformat=5 / range=0 / colorprim=1 / transfer=1 / colormatrix=1 / chromaloc=0 / display-window=0 / cll=0,0 / min-luma=0 / max-luma=1023 / log2-max-poc-lsb=8 / vui-timing-info / vui-hrd-info / slices=1 / no-opt-qp-pps / no-opt-ref-list-length-pps / no-multi-pass-opt-rps / scenecut-bias=0.05 / hist-threshold=0.01 / no-opt-cu-delta-qp / no-aq-motion / no-hdr10 / no-hdr10-opt / no-dhdr10-opt / no-idr-recovery-sei / analysis-reuse-level=0 / analysis-save-reuse-level=0 / analysis-load-reuse-level=0 / scale-factor=0 / refine-intra=0 / refine-inter=0 / refine-mv=1 / refine-ctu-distortion=0 / no-limit-sao / ctu-info=0 / no-lowpass-dct / refine-analysis-type=0 / copy-pic=1 / max-ausize-factor=1.0 / no-dynamic-refine / no-single-sei / no-hevc-aq / no-svt / no-field / qp-adaptation-range=1.00 / no-scenecut-aware-qpconformance-window-offsets / right=0 / bottom=0 / NTM4NzU=
  35. Language                                 : English
  36. Default                                  : Yes
  37. Forced                                   : No
  38. Color range                              : Limited
  39. Color primaries                          : BT.709
  40. Transfer characteristics                 : BT.709
  41. Matrix coefficients                      : BT.709
  42. Audio #1
  43. ID                                       : 2
  44. Format                                   : DTS XLL
  45. Format/Info                              : Digital Theater Systems
  46. Commercial name                          : DTS-HD Master Audio
  47. Codec ID                                 : A_DTS
  48. Duration                                 : 1 h 59 min
  49. Bit rate mode                            : Variable
  50. Bit rate                                 : 3 831 kb/s
  51. Channel(s)                               : 6 channels
  52. Channel layout                           : C L R Ls Rs LFE
  53. Sampling rate                            : 48.0 kHz
  54. Frame rate                               : 93.750 FPS (512 SPF)
  55. Bit depth                                : 24 bits
  56. Compression mode                         : Lossless
  57. Stream size                              : 3.19 GiB (17%)
  58. Title                                    : Cantonese DTS-HD Master Audio 7.1 @ 3831 kbps
  59. Language                                 : Chinese
  60. Default                                  : Yes
  61. Forced                                   : No
  62. Audio #2
  63. ID                                       : 3
  64. Format                                   : DTS XLL
  65. Format/Info                              : Digital Theater Systems
  66. Commercial name                          : DTS-HD Master Audio
  67. Codec ID                                 : A_DTS
  68. Duration                                 : 1 h 59 min
  69. Bit rate mode                            : Variable
  70. Bit rate                                 : 1 912 kb/s
  71. Channel(s)                               : 6 channels
  72. Channel layout                           : C L R Ls Rs LFE
  73. Sampling rate                            : 48.0 kHz
  74. Frame rate                               : 93.750 FPS (512 SPF)
  75. Bit depth                                : 16 bits
  76. Compression mode                         : Lossless
  77. Stream size                              : 1.59 GiB (9%)
  78. Title                                    : Mandarin DTS-HD Master Audio 5.1 @ 1913 kbps
  79. Language                                 : Chinese
  80. Default                                  : No
  81. Forced                                   : No
  82. Audio #3
  83. ID                                       : 4
  84. Format                                   : AC-3
  85. Format/Info                              : Audio Coding 3
  86. Commercial name                          : Dolby Digital
  87. Codec ID                                 : A_AC3
  88. Duration                                 : 1 h 59 min
  89. Bit rate mode                            : Constant
  90. Bit rate                                 : 384 kb/s
  91. Channel(s)                               : 2 channels
  92. Channel layout                           : L R
  93. Sampling rate                            : 48.0 kHz
  94. Frame rate                               : 31.250 FPS (1536 SPF)
  95. Compression mode                         : Lossy
  96. Stream size                              : 328 MiB (2%)
  97. Title                                    : Cantonese Dolby Digital Audio 2.0 @ 384 kbps  Commentary
  98. Language                                 : Chinese
  99. Service kind                             : Complete Main
  100. Default                                  : No
  101. Forced                                   : No
  102. Text #1
  103. ID                                       : 5
  104. Format                                   : PGS
  105. Codec ID                                 : S_HDMV/PGS
  106. Codec ID/Info                            : Picture based subtitle format used on BDs/HD-DVDs
  107. Duration                                 : 1 h 53 min
  108. Bit rate                                 : 27.7 kb/s
  109. Count of elements                        : 2586
  110. Stream size                              : 22.5 MiB (0%)
  111. Title                                    : Cht/SUP  原盘繁体
  112. Language                                 : Chinese
  113. Default                                  : Yes
  114. Forced                                   : No
  115. Text #2
  116. ID                                       : 6
  117. Format                                   : PGS
  118. Codec ID                                 : S_HDMV/PGS
  119. Codec ID/Info                            : Picture based subtitle format used on BDs/HD-DVDs
  120. Duration                                 : 1 h 53 min
  121. Bit rate                                 : 30.7 kb/s
  122. Count of elements                        : 2586
  123. Stream size                              : 24.9 MiB (0%)
  124. Title                                    : Eng/SUP
  125. Language                                 : English
  126. Default                                  : No
  127. Forced                                   : No
  128. Menu
  129. 00:00:00.000                             : en:第 01 章
  130. 00:11:38.167                             : en:第 02 章
  131. 00:19:49.375                             : en:第 03 章
  132. 00:32:38.208                             : en:第 04 章
  133. 00:38:31.958                             : en:第 05 章
  134. 00:50:02.500                             : en:第 06 章
  135. 01:01:07.750                             : en:第 07 章
  136. 01:11:16.375                             : en:第 08 章
  137. 01:21:33.667                             : en:第 09 章
  138. 01:29:35.083                             : en:第 10 章
  139. 01:40:00.875                             : en:第 11 章
  140. 01:48:26.875                             : en:第 12 章
复制代码


窃听风云[共3部合集][国粤英多音轨/繁英字幕].Overheard.Trilogy.2009-2014.BluRay.1080p.2Audio.DTS-HD.MA ...

窃听风云[共3部合集][国粤英多音轨/繁英字幕].Overheard.Trilogy.2009-2014.BluRay.1080p.2Audio.DTS-HD.MA ...

窃听风云[共3部合集][国粤英多音轨/繁英字幕].Overheard.Trilogy.2009-2014.BluRay.1080p.2Audio.DTS-HD.MA ...

窃听风云[共3部合集][国粤英多音轨/繁英字幕].Overheard.Trilogy.2009-2014.BluRay.1080p.2Audio.DTS-HD.MA ...



蓝光高清网提示您 点击下方附件即可下载

窃听风云[共3部合集][国粤英多音轨/繁英字幕].Overheard.Trilogy.2009-2014.BluRay.1080p.2Audio.DTS-HD.MA.7.1.x265.10bit-ALT 47.18GB

窃听风云[共3部合集][国粤英多音轨 繁英字幕].Overheard.Trilogy.2009-2014.BluRay.10.torrent ( 119.17 KB )

加入蓝光高清网VIP会员  无限制下载本站所有资源---点这里

资源下载、资源播放、字幕使用、无法下载等常见问题---点这里
回复

使用道具 举报

全部回复1 显示全部楼层
wangzhang3手机认证 发表于 2022-5-13 18:43:06 | 显示全部楼层
后港片时代不多的亮点了,谢谢分享
回复 支持 反对

使用道具 举报

发表回复

您需要登录后才可以回帖 登录 | 立即注册

本版积分规则

开通会员 帮助中心 返回顶部 返回列表