蓝光高清网

搜索
开启左侧

北方人(台)/北欧人4k.The.Northman.2022.2160p.WEB-DL.x265.10bit.HDR.DDP5.1.Atmos-4k电影下载-14.46 GB

蓝鸟 发表于 6 天前 | 显示全部楼层 |阅读模式
北欧人 豆瓣评分: 7.1分
上映时间:2022年
类型:剧情 
地区:美国 
导演:罗伯特·艾格斯
主演:亚历山大·斯卡斯加德 / 妮可·基德曼 / 克拉斯·邦 / 伊桑·霍克 / 安雅·泰勒-乔伊
画质标准:4K HDR  封装音轨:Dolby TrueHD 5.1 
本帖最后由 蓝鸟 于 2022-5-13 09:23 编辑 4 x  I2 A$ H9 b/ c1 ]; F% Q  z$ q
7 x* o* e( D% |  r0 l* C) g! S; Z
简       介
; J1 N* v3 r5 w! u7 w) t! ]  I2 K, ~: x
  一名年轻的维京王子踏上为父复仇之路。! N2 A) Q* h) t$ E; _" Z/ y. C
3 t) T5 n6 a1 m
影片参数/ o+ p% @- Z. h* E0 E2 ]4 x- g3 \
北方人(台)/北欧人4k.The.Northman.2022.2160p.WEB-DL.x265.10bit.HDR.DDP5.1.Atmos-4k电影信息- x; Y! M: ]1 U: \  {/ d& Z* K# M
Video$ `+ S; p6 ~: y/ s2 o/ {
ID : 1
! N- [7 K2 [* DFormat : HEVC
* s4 F% z8 {/ i/ ?Format/Info : High Efficiency Video Coding
$ ]- g1 ^$ ~! O" S* j5 qFormat profile : Main 10@L5@High
7 E$ h- i' a' W' x$ a- x+ bHDR format : SMPTE ST 2086, HDR10 compatible( t  d. z. G0 [7 W# J9 H
Codec ID : V_MPEGH/ISO/HEVC
8 i) Z7 [& U+ H0 T$ qDuration : 2 h 16 min5 b# R' b/ h! ]" A- c5 d
Bit rate : 14.3 Mb/s
$ T& k3 v8 _2 Z3 J% x; RWidth : 3 836 pixels7 C9 D1 R! j) n# N8 z
Height : 1 912 pixels( A# h. O) W+ f, r) v* ]2 D- E# W
Display aspect ratio : 2.006
4 n& [5 J* }; G( bFrame rate mode : Constant& r% Y; e% C# X! |# \( n: h
Frame rate : 23.976 FPS
- k1 A- X+ R7 nColor space : YUV; d3 f; v" T9 z3 @
Chroma subsampling : 4:2:0 (Type 2)5 |& w- Y# U4 D5 p" t
Bit depth : 10 bits8 S5 e) ^8 y' w4 o0 N& g
Bits/(Pixel*Frame) : 0.082) X0 ]: z1 e4 Z) |! ~  }5 ]9 g) Z
Stream size : 13.7 GiB (95%)
. O! q2 m( O+ Q9 Z- h3 EDefault : Yes
6 {* A+ f% N9 X2 B& iForced : No
" K1 e- m7 v9 k, h; BColor range : Limited' I: c* T' t9 q5 ?1 v6 k
Color primaries : BT.2020
5 `3 |( n: E! z/ @# T  T2 `" O5 ~Transfer characteristics : PQ
; u4 _) \0 e+ S4 `1 o( a. VMatrix coefficients : BT.2020 non-constant3 s7 h, U% `/ b
Mastering display color primaries : BT.2020
9 }* C$ J9 X# ~5 sMastering display luminance : min: 0.0050 cd/m2, max: 1000 cd/m2
, o$ W+ T+ L6 t2 {Maximum Content Light Level : 6958 cd/m2  t0 y, e% X' x, s
Maximum Frame-Average Light Level : 586 cd/m23 ~0 |3 D  c4 p, m4 z* R
" S- i; Z' w+ ?, X/ I% ]0 F7 {
Audio
% Q4 V7 k6 t, l- xID : 27 {2 H, G; |6 {& Y: n; F
Format : E-AC-3 JOC( \, n! \! f; A
Format/Info : Enhanced AC-3 with Joint Object Coding
3 t5 h3 b% c, h' }$ B4 p3 p( s7 j* e" jCommercial name : Dolby Digital Plus with Dolby Atmos
  Y# J% B! K' s# L! l" }Codec ID : A_EAC3
* j7 `, I) d8 r. e6 a' |) ?Duration : 2 h 17 min
  C. T& G2 A; a; y: TBit rate mode : Constant/ c: ]8 e7 D" Z) ?. @$ Z* r( Y* P4 i
Bit rate : 768 kb/s9 K/ v6 V9 t! S0 A; D5 [& ^
Channel(s) : 6 channels
4 V% ~: E; U, X' S6 Y8 DChannel layout : L R C LFE Ls Rs
- v9 A3 o  h  ?9 x: o& J, ~9 kSampling rate : 48.0 kHz
0 b; E8 J! c1 LFrame rate : 31.250 FPS (1536 SPF)' H; M# ^& K+ Y) h1 a" l
Compression mode : Lossy
% t* |% ?6 d1 t4 P+ o- dStream size : 753 MiB (5%)
& a) x3 R0 j$ z5 F9 m; kLanguage : English- _; S3 M# U6 V$ N
Service kind : Complete Main( @2 a* ]+ w$ r' T" X5 {8 A
Default : Yes
6 s) i# C# h2 w. Y, kForced : No
. X) m2 \% U9 i, c  F6 ~Complexity index : 161 B5 z$ ]  ]  d+ C
Number of dynamic objects : 15) ^4 x& F2 t& [
Bed channel count : 1 channel
# b, y1 j3 H- e5 W9 ~Bed channel configuration : LFE
: B6 _* m2 z9 q4 v
" q0 g9 g) d. R! O- b& ], RText #1
. S# ~6 h, m# U  `  J2 i4 CID : 3
0 i; u- _6 K2 D( RFormat : UTF-8
! W9 |+ e5 M0 I2 |& W2 b0 @+ ECodec ID : S_TEXT/UTF8, A: `4 N& s7 |8 a9 E" \* v: d
Codec ID/Info : UTF-8 Plain Text
, Q  j) t: e$ J0 V% }Duration : 1 h 39 min
1 i# E0 U6 z* t. W; WBit rate : 1 b/s
" [- {: n# Z5 K1 BCount of elements : 33
9 z, b7 K* ]9 J+ x$ ?. t6 dStream size : 1.10 KiB (0%)% r, c5 g# G: h4 Q. k( P
Title : FORCED; a& s: X  R+ [6 U
Language : English
6 H. `- L! \( i1 _! P0 t' RDefault : No
, n$ q. ?- S( l' t6 HForced : Yes, {5 J+ u( i. l8 B( W9 H  s
4 ?+ C1 g) h* ^: J/ m. ^( m1 l
Text #28 U9 e8 C4 i# W2 d7 k
ID : 4/ S1 n2 V7 u; @) g
Format : UTF-8. b0 V) {& v" r
Codec ID : S_TEXT/UTF8/ ^# ]; Y9 `' y1 i. B4 T* z! N
Codec ID/Info : UTF-8 Plain Text$ D: V8 _  B1 d5 \
Duration : 2 h 16 min& J% W) V% E0 Y# h- t+ i
Bit rate : 25 b/s
2 R( W, }3 s5 }* @6 X7 p2 {9 W7 yCount of elements : 10958 P: g  `! Z& ]' y& L! o: z
Stream size : 25.8 KiB (0%)- T) ?( F6 `2 q' N+ J/ N9 C& E1 T" f
Language : English
+ y2 K- S5 v1 m# BDefault : Yes
3 U, d. U3 E: ~/ IForced : No
3 {: p9 ^( P! y; M* }6 {/ B+ g* c+ H7 U% `
Text #3
' b1 C9 C) v( |* Q! \ID : 5& u+ K6 l% N2 Y9 W8 Y4 w7 h- a
Format : UTF-8
$ g% Q! l  e, G3 }4 ^0 ]Codec ID : S_TEXT/UTF89 C2 S% {6 v5 }9 D, u) [
Codec ID/Info : UTF-8 Plain Text6 s6 \6 W( t( j5 T8 {  c! ~2 D
Duration : 2 h 16 min
( N% Q3 w, z  [Bit rate : 40 b/s
% l4 \, C8 C# W* f# n$ }8 b  TCount of elements : 1700
; ?1 Q3 A9 G* c/ F' EStream size : 40.0 KiB (0%)9 g$ [+ c, n5 z) j
Title : SDH
. X# x# ?' B0 o  K9 v' kLanguage : English- i. C3 M) i# [, q9 i/ \0 y4 u# J
Default : No' a0 `7 D' {: `" P& B
Forced : No
# I; P. s4 p7 d/ H- u5 ~" F. Y% B! q" m, [  G+ ~: E
Text #4
. w8 k# X# `; ]+ T% BID : 6
- o( [; B0 X" GFormat : UTF-8
( ~: l% S1 {; ^+ I  F! `Codec ID : S_TEXT/UTF8
0 B5 L! U9 ?1 U7 hCodec ID/Info : UTF-8 Plain Text
7 D2 h0 z" b$ l$ U' |/ T2 YDuration : 2 h 8 min
; c7 O% G9 ]5 }) y0 h; u, SBit rate : 29 b/s
# F( u  ?; P, \% T/ u+ DCount of elements : 8605 J/ B4 \1 \1 v6 N
Stream size : 28.0 KiB (0%)- b) _: W% M5 Z: B3 r$ V# |( k8 q+ H
Title : Latin American
5 |1 j' D. w: i# C& ^Language : Spanish8 ^* K& G3 I% e
Default : No; a9 C3 k- R: g" P- x8 ^9 q+ P% j" G
Forced : No
4 D* d" T3 ~3 Y. K$ ~5 y
4 N' X- s/ r5 ?- |. aText #5
0 ]& H$ l$ x& A. LID : 7+ L* s! e6 {, L4 f4 H+ u
Format : UTF-8
* _6 l# x. o; {) ]( O  _1 j; }Codec ID : S_TEXT/UTF8
' V2 G; Y8 R9 Z' B3 o1 bCodec ID/Info : UTF-8 Plain Text
  H0 c4 y8 K1 i/ j! R, ~Duration : 2 h 10 min: g+ m" X$ t8 M
Bit rate : 29 b/s
8 r  h( t6 V5 s  j# NCount of elements : 997
4 e7 d6 S+ R+ D$ P8 h6 T' B: L& JStream size : 28.1 KiB (0%)
2 U! B. m; v6 l. q' ?$ K% cTitle : Canadian5 q  R/ a) O5 b/ w/ I& w6 K  z
Language : French
9 `# g- h' H4 [& f0 n1 H% ]; cDefault : No
0 l7 c! t/ D6 h3 lForced : No

5 r: s' n1 x4 Z0 }" J蓝光高清网提示您 点击下方附件名称 即可开始下载- H( E7 D2 t) Q, F3 q- R
8 w8 x, L6 h  d  I8 U" ^
多版本下载时请注意区分! A4 z. Y! h( P- u, f9 L
1 S* U) ^  Y7 ^0 U: \8 A; f
北方人(台)/北欧人4k.The.Northman.2022.2160p.WEB-DL.x265.10bit.HDR.DDP5.1.Atmos-4k电影下载/ {) s6 w: r# S* C$ P

4 Y1 p- e1 \- A) a/ ~8 t北欧人4k.The.Northman.2022.2160p.WEB-DL.x265.10bit.HDR.DDP5.1.Atmos【4k HDR 14.46 GB】
: I) s4 V- k" c! ]9 D4 d6 f6 U/ R

北欧人4k.The.Northman.2022.2160p.WEB-DL.x265.10bit.HDR.DDP5.1.Atmos-NOGRP.torrent ( 18.73 KB )

- G: \4 I' |9 o8 L% A8 a
- V* S9 L2 Z- a/ j
北欧人4k.The.The.Northman.2022.2160p.WEB-DL.x265.10bit.SDR.DDP5.1.Atmos【4k SDR 12.19GB】
6 V4 M$ z- l: y# s- }

北欧人4k.The.Northman.2022.2160p.WEB-DL.x265.10bit.SDR.DDP5.1.Atmos-NOGRP.torrent ( 15.9 KB )


! b$ q1 d5 I/ k, u8 \; r/ |9 ~. c. R: p, `1 P! u5 N" o( l
北欧人4k.The.Northman.2022.2160p.WEB-DL.DDP5.1.Atmos.DV.MKV.x265【4k 杜比视界 24.29 GB】; U9 W7 @& S2 F/ A4 @1 r  P

北欧人4k.The.Northman.2022.2160p.WEB-DL.DDP5.1.Atmos.DV.MKV.x265-DVSUX.torrent ( 31.01 KB )


* y+ T2 L0 N, ?7 a: N) @8 k& h; e3 Z. C; R: j
北欧人4k.The.Northman.2022.2160p.WEB-DL.DDP5.1.Atmos.DV.MP4.x265【4k 杜比视界 24.29 GB】3 }& c; N! B( F

北欧人4k.The.Northman.2022.2160p.WEB-DL.DDP5.1.Atmos.DV.MP4.x265-DVSUX.torrent ( 31.01 KB )

* U- c$ Q9 i) f4 A
4 d! C; d1 h' B% j
北欧人4k.The.Northman.2022.2160p.MA.WEB-DL.x265.10bit.HDR.DDP5.1.Atmos【4k HDR 24.02 GB】
1 F4 Q( U. f  v8 {

北欧人4k.The.Northman.2022.2160p.MA.WEB-DL.x265.10bit.HDR.DDP5.1.Atmos-MZAB.torrent ( 30.68 KB )


% t! F+ [0 p9 V( s7 r
( x! A  I% ~4 p北欧人4k.The.Northman.2022.2160p.MA.WEB-DL.x265.10bit.SDR.DDP5.1.Atmos【4k SDR 24.06 GB】
* P' x9 q9 |+ s; T: u  p! d$ R

北欧人4k.The.Northman.2022.2160p.MA.WEB-DL.x265.10bit.SDR.DDP5.1.Atmos-MZABI.torrent ( 30.72 KB )


2 E2 y) |! v  t. [3 Z6 g4 e! Z$ J/ g
- s! e* h, f7 u& M  N0 u6 Z
北欧人中文字幕下载
( o% e4 Y: S2 p5 Jhttps://www.4kii.com/thread-110578-1-1.html3 g, N0 ~$ a% M% W' j4 _
加入蓝光高清网VIP会员  无限制下载本站所有资源---点这里

资源下载、资源播放、字幕使用、无法下载等常见问题---点这里
回复

使用道具 举报

全部回复2 显示全部楼层
dongshouba手机认证 发表于 5 天前 | 显示全部楼层

% \1 ]2 p: g  L7 R7 I7 \) P感谢分享
回复

使用道具 举报

再会未来 发表于 前天 20:37 | 显示全部楼层
谢谢分享
回复

使用道具 举报

发表回复

您需要登录后才可以回帖 登录 | 立即注册

本版积分规则

联系客服 关注微信 下载APP 返回顶部 返回列表