蓝光高清网

搜索
开启左侧

美国田园诗 / 美国心风暴(台)/美国牧歌4k.American.Pastoral.2016.2160p.WEB-DL.x265.10bit.HDR.DTS-HD.MA.5.1-4k电影下载-13.53 GB

蓝鸟 发表于 6 天前 | 显示全部楼层 |阅读模式
美国牧歌 豆瓣评分: 7.0分
上映时间:2016年
类型:剧情 犯罪 
地区:美国 
导演:伊万·麦克格雷格
主演:伊万·麦克格雷格 / 詹妮弗·康纳利 / 达科塔·范宁 / 彼得·里格特 / 鲁珀特·伊文斯
画质标准:4K HDR  封装音轨:DTS-HD.MA 5.1 
- c: z* Y( X0 x, n
简       介, ]" Y8 H8 n% N  D3 |4 ^

: S. @( P7 G  a7 Z8 m4 `/ L  影片改编自菲利普·罗斯的《美国三部曲:美国牧歌》,讲述了一个生活看似完美的犹太企业家塞莫尔·利沃夫因女儿在反越战浪潮中的恐怖主义行为而遭遇毁灭的故事。
& l. P0 L0 f* f! g  |
: d0 s4 ]% ~( ?, |9 b( s3 c
: h. q+ m* n0 t$ t' ^7 C/ b影片参数0 H& y+ d, V9 V; {% P# w
美国田园诗 / 美国心风暴(台)/美国牧歌4k.American.Pastoral.2016.2160p.WEB-DL.x265.10bit.HDR.DTS-HD.MA.5.1-4k电影信息
: P- [  d* r6 q9 x' I: }Video- F  d# Y) j' W9 B1 s. F
ID : 1$ j0 g& S# J  J% U+ V
Format : HEVC
. w3 J, x! B  R2 ~8 o4 VFormat/Info : High Efficiency Video Coding
" j" ~( x% P- d+ PFormat profile : Main 10@L5@High% N) V; E' F" ]: c
HDR format : SMPTE ST 2086, HDR10 compatible6 J3 ]" Z9 U- T6 v6 d) [
Codec ID : V_MPEGH/ISO/HEVC" F0 I/ X6 e; `8 C8 P* o+ q# r
Duration : 1 h 48 min6 U) G3 m( g+ g7 [) u" j
Bit rate : 14.3 Mb/s/ F; E" V% f/ P) M8 G
Width : 3 828 pixels$ d0 [: ?& b& m- F3 N  w3 i% n3 Q
Height : 1 584 pixels  J4 j% B7 z1 s) e# a
Display aspect ratio : 2.40:1+ n, u; `, u3 E' \1 m, k
Frame rate mode : Constant
2 q: F5 ^, ?4 E% {4 `, cFrame rate : 23.976 FPS  K0 y* n2 Z2 U; m  n  P' [2 `
Color space : YUV" o3 T2 N3 s- e* `7 y( M
Chroma subsampling : 4:2:0 (Type 2)
4 @5 H) }/ ?4 N) p& JBit depth : 10 bits. A+ a8 I% g4 p) z7 J( H/ A
Bits/(Pixel*Frame) : 0.099- Z5 m0 ^# _& G" o" f4 _
Stream size : 10.8 GiB (80%)
" O+ g8 L2 ]4 {  d: I9 Z% |8 ADefault : Yes
* _0 B& ~9 o# k! ~% H; ~7 a( B7 k8 tForced : No
1 B3 l% X1 p8 C/ }, r% NColor range : Limited
$ A% E: |2 B! K/ o0 QColor primaries : BT.2020
  s; g& @) v3 J8 P( B, kTransfer characteristics : PQ% ~* a$ L/ f( O1 V7 \3 z. i+ S* ]
Matrix coefficients : BT.2020 non-constant7 N  ^" o2 I4 k) h
Mastering display color primaries : Display P3$ W8 C( x5 t& v" w+ p; r
Mastering display luminance : min: 0.0050 cd/m2, max: 4000 cd/m2
1 n$ g+ x' ?  c! h% e1 R3 tMaximum Content Light Level : 335 cd/m2
8 k- l  i/ ]9 o8 @1 M. f$ j) sMaximum Frame-Average Light Level : 81 cd/m2
, I+ Z, ^% @* P# v
" }2 M+ C! y# ~6 B3 Y
, @8 p& `$ d/ e* J
Audio #1% ]- K- n" H% O, R
ID : 2
( X/ z+ J5 G+ b- J+ e9 P4 _Format : DTS XLL( M% C6 P" u6 j$ `2 b6 M5 u
Format/Info : Digital Theater Systems. C' R) Q8 t  L8 W) D
Commercial name : DTS-HD Master Audio
$ @7 g1 k6 i5 [' Y; s' p* xCodec ID : A_DTS3 W) d3 [5 e) v* K! g3 ]
Duration : 1 h 48 min
$ E6 B# z) z1 G2 LBit rate mode : Variable" ]  \6 @5 q, S* o, C! _/ y" n
Bit rate : 3 136 kb/s
9 S0 e: _  @, SChannel(s) : 6 channels
5 P! ?! U1 [3 BChannel layout : C L R Ls Rs LFE
/ o+ h. C5 T' ?# I& j6 b/ W1 dSampling rate : 48.0 kHz
& X/ x% ?! b7 @6 sFrame rate : 93.750 FPS (512 SPF)* E/ y+ ~: ?3 n8 ~
Bit depth : 24 bits+ q/ A# f$ [( j+ C' V# W# M, \  J$ E
Compression mode : Lossless# p" i* `7 z! b4 D, U
Stream size : 2.37 GiB (18%)7 M  c" y) X7 L) f$ e
Title : DTS-HD MA 5.1
. `) Q% n( i9 T2 yLanguage : English7 j4 Z6 ]/ S  X9 H' X
Default : Yes
. q5 s" \' X8 @2 e- HForced : No9 B$ _3 E& l. [2 \

3 p1 N, p& a! L
& x. q! z3 {0 h$ o% k6 T
Audio #2
. I1 e1 ~( f0 x2 Z1 {ID : 3
' r8 P/ g# y; D! R! sFormat : AC-3: }5 r6 F. X2 j8 J% X8 K4 r
Format/Info : Audio Coding 3" t/ @) \: ?6 J9 z7 m
Commercial name : Dolby Digital
, L* l/ Q' c! r/ }) J- D3 g2 qCodec ID : A_AC3( D" N0 f3 `6 ~7 C& R6 y
Duration : 1 h 48 min6 B5 I/ k6 _: b+ E3 c
Bit rate mode : Constant5 k; j* w/ K* S* E( y' h/ t
Bit rate : 384 kb/s
& I( X! R7 v0 Z* I3 J& }2 PChannel(s) : 6 channels
8 Z4 L& u8 o! D( Q* q/ gChannel layout : L R C LFE Ls Rs
/ f5 _: Y% f5 Y& o9 cSampling rate : 48.0 kHz# T& K& ?: R% }/ {) `
Frame rate : 31.250 FPS (1536 SPF)
2 c8 `' b( h4 p* f9 a" d2 cCompression mode : Lossy3 u. Z/ Y/ l* R/ v0 {
Stream size : 297 MiB (2%)
* c2 n4 g: W& ~3 G5 K1 H5 CLanguage : English
3 ^" a3 \  B7 m" r5 dService kind : Complete Main# l: O/ `. g- M8 j1 _, S1 u
Default : No
9 |& E) c! p; N/ SForced : No! m  w3 U. {! t- O) F

& b- e( R; T1 j5 _6 W/ b
4 H. S* O! P6 j; K$ g5 _5 c
Text #1
: s2 L: q. i' l2 A$ qID : 4
- k* i# S+ n; H* JFormat : UTF-8- ]: c/ Q' Y5 K' P9 f$ v0 H
Codec ID : S_TEXT/UTF8( V- ~/ O% T, f( e" T1 x/ ]1 P
Codec ID/Info : UTF-8 Plain Text2 f) h% J/ c0 q' C" j" O9 {
Duration : 1 h 42 min
  d* T, L/ \( L8 M5 Z/ e/ i) u+ L; RBit rate : 67 b/s. Z2 o- Y7 v7 W4 g# [( j' \5 v
Count of elements : 1533
1 Z' o. z, T) M2 \- @Stream size : 50.9 KiB (0%)
8 r% k, {7 H* w+ }1 r6 ]Title : English CC- S# Z/ \, g+ t" v) V$ y
Language : English
6 }4 W2 s' o, v( Z# aDefault : No/ a2 U! q7 Q& v& F. x7 v
Forced : No; w! I, J# z" J# r
2 e2 O2 y9 L0 f& X/ W  \. [
% S. H1 g- V/ B% M1 H( G9 I
Text #2
8 v+ a1 T3 g1 t+ ZID : 5
6 O9 J% H- z* N& h# cFormat : PGS' r+ Y( D7 m7 b7 `8 c$ Y
Muxing mode : zlib7 C  _' j. [" k$ X
Codec ID : S_HDMV/PGS$ ?, |8 n5 E2 i! R: {9 J. X
Codec ID/Info : Picture based subtitle format used on BDs/HD-DVDs3 j2 T1 U- J& w1 P9 l  q: g
Duration : 1 h 42 min
# o; [0 }1 K" nBit rate : 42.0 kb/s8 O* a4 G5 n* R% a
Count of elements : 2870/ \" N. l$ ?+ ]. I
Stream size : 30.7 MiB (0%)
) A* H1 k% e4 L) j; n* `; iTitle : SDH
8 Q* t9 m; W4 l2 y' }Language : English
( J% N8 j# J) t2 ], |Default : No+ _! I+ C3 Q, t; w9 q. g$ {* v
Forced : No
2 U% a/ w" E  Q: ], J/ K6 Z7 V
& @) E1 i+ r6 s
% g3 R# Z5 p% o% Y* V3 Q5 E+ |3 r
Text #3
) ~5 `$ Z+ o; c% @# Q& _ID : 6
1 ^; q. U4 j; S# I( d. AFormat : PGS' t0 y) }0 [- ?# `- _. c
Muxing mode : zlib& m+ l9 D; M+ D) W
Codec ID : S_HDMV/PGS
  {( T3 v" U; {# J6 L3 SCodec ID/Info : Picture based subtitle format used on BDs/HD-DVDs2 g6 u/ a! S2 f: {9 p9 q1 C. \
Duration : 1 h 40 min
9 |- m3 N, D1 n, _  U1 |. d* gBit rate : 39.0 kb/s! |8 O' j. I% I0 \
Count of elements : 2680' G$ H9 B' {4 s3 R# e0 `  G
Stream size : 28.0 MiB (0%)
0 a4 a/ u) s$ g* ]" XTitle : Latin American
/ a. H9 W; E& i8 l! iLanguage : Spanish4 S: @- l* x' g+ J2 V. g
Default : No+ o5 R# T: \- b& v; i$ [
Forced : No
" {; o% Z$ T  |& q% o  R0 n, o+ i8 o/ r/ c  g
( B# X1 l' K: e* X5 L$ r5 t& j6 J
Menu" }2 H# C" h5 c+ O
00:00:00.000 : en:Chapter 01' D6 k0 O; t0 M( R7 Y
00:03:48.000 : en:Chapter 02
# U1 A3 |" w% o( e9 M4 P00:14:40.000 : en:Chapter 03: a5 {2 V( B0 h- s- Y% g
00:24:36.000 : en:Chapter 04& Q% _4 I( e$ D# r) g! H* t
00:37:59.000 : en:Chapter 05
3 t5 N7 Q. Z. Y! ?+ W6 s00:48:58.000 : en:Chapter 06
* V; }+ K: P$ J/ o0 Z8 n" u7 _00:58:05.000 : en:Chapter 07
4 d0 b" B0 P, L1 p01:08:46.000 : en:Chapter 08* n* j7 z+ E! W$ Y: W9 J2 r
01:14:35.000 : en:Chapter 09
1 A3 i# ~: P" q: z. Q) v0 D01:27:33.000 : en:Chapter 104 x* H5 J: u0 ]7 L% ~% m
01:42:35.000 : en:Chapter 11
, E; H1 }6 O- F8 B$ i0 q

7 L$ L6 D/ x) ]蓝光高清网提示您 点击下方附件名称 即可开始下载
, i$ L# t. t# r' C5 \/ R: ]; T" I3 t- y$ T  L; |3 ]

' w& g: E. V7 E: a) i多版本下载时请注意区分1 g# G4 I9 n2 E

0 o6 q0 Q/ l/ B8 [4 N

! @8 z0 {& z- l4 X5 R' a美国田园诗 / 美国心风暴(台)/美国牧歌4k.American.Pastoral.2016.2160p.WEB-DL.x265.10bit.HDR.DTS-HD.MA.5.1-4k电影下载# J; i9 {& d; N6 i. w1 y
" |; \4 s7 c9 }! l- X6 `) t7 U
美国牧歌4k.American.Pastoral.2016.2160p.WEB-DL.x265.10bit.HDR.DTS-HD.MA.5.1【4k HDR 13.53 GB】, _, `% P( x: @8 L% o

美国牧歌4k.American.Pastoral.2016.2160p.WEB-DL.x265.10bit.HDR.DTS-HD.MA.5.1-NOGRP.torrent ( 17.59 KB )

& P. g3 t$ A- C7 q0 g

) P; U2 Z1 s4 W" Z: b: z4 ^) ]美国牧歌4k.American.Pastoral.2016.2160p.WEB-DL.DTS-HD.MA.5.1.DV.MKV.x265【4k 杜比视界 13.61GB】  R9 o6 s* Q& y/ i$ Z/ G7 S9 D

美国牧歌4k.American.Pastoral.2016.2160p.WEB-DL.DTS-HD.MA.5.1.DV.MKV.x265-DVSUX.torrent ( 17.68 KB )


1 N3 \4 k% m! N8 V
5 O( o& @! |+ \# n美国牧歌4k.American.Pastoral.2016.2160p.WEB-DL.DD5.1.DV.MP4.x265【4k  杜比视界 11.21GB】
- T+ |. l5 |3 d" |3 A
. x9 r2 {, l5 _5 v8 I6 H

美国牧歌4k.American.Pastoral.2016.2160p.WEB-DL.DD5.1.DV.MP4.x265-DVSUX.torrent ( 14.66 KB )


( I% T. t. C" G. {& D" Z' P& A9 K& ~# \
美国牧歌中文字幕下载, _8 d5 k' u& G
https://www.4kii.com/thread-110579-1-1.html
: s( M9 v5 X; ^' x$ k! E1 ~. r
加入蓝光高清网VIP会员  无限制下载本站所有资源---点这里

资源下载、资源播放、字幕使用、无法下载等常见问题---点这里
回复

使用道具 举报

全部回复2 显示全部楼层
dongshouba手机认证 发表于 6 天前 | 显示全部楼层
感谢分享
回复

使用道具 举报

再会未来 发表于 6 天前 | 显示全部楼层
谢谢分享
回复

使用道具 举报

发表回复

您需要登录后才可以回帖 登录 | 立即注册

本版积分规则

联系客服 关注微信 下载APP 返回顶部 返回列表