蓝光高清网

搜索
开启左侧

[喜剧] 反正我就废 Zokki.2020.JAPANESE.1080p.BluRay.x264.DDP5.1-EA 7.92GB

蓝鸟 发表于 5 天前 | 显示全部楼层 |阅读模式

反正我就废 Zokki.2020.JAPANESE.1080p.BluRay.x264.DDP5.1-EA 7.92GB

反正我就废 Zokki.2020.JAPANESE.1080p.BluRay.x264.DDP5.1-EA 7.92GB


译  名 反正我就废 / 秘密与谎言 / ZOKKI
片  名 ゾッキ
年  代 2020
产  地 日本
类  别 喜剧
语  言 日语
上映日期 2020-11-04(东京电影节) / 2021-04-02(日本)
豆瓣评分 5.8/10 (633人评价)
片  长 113分钟
导  演 竹中直人 Naoto Takenaka
       山田孝之 Yamada Takayuki
       斋藤工 Takumi Sait?
编  剧 仓持裕 Yutaka Kuramochi
       大桥裕之 Hiroyuki Ohashi
演  员 吉冈里帆 Riho Yoshioka
       满岛真之介 Shin''nosuke Mitsushima
       铃木福 Fuku Suzuki
       柳百合菜 Yurina Yanagi
       南沙良 Sara Minami
       安藤政信 Masanobu And?
       泷正则 Pierre Taki
       森优作 Yusaku Mori
       木龙麻生 Mai Kiry?
       幸田来未 Koda Kumi
       竹原皮斯托 Pistol Takehara
       润浩 Yunho
       松井玲奈 Rena Matsui
       渡边佑太朗 Yutaro Watanabe
       石坂浩二 K?ji Ishizaka
       松田龙平 Ry?hei Matsuda
       国村隼 Jun Kunimura

简  介

中年怪咖突然想帶著睡袋與撿到的色情書刊一路向西;高二小宅男唯一的朋友是個一心想死的少年;廢柴老爹帶著兒子夜襲高中校園偷沙袋居然遇到鬼?還有一個在DVD出租店打工的孤獨青年。平凡而細瑣,但仍充滿靈魂的小故事,看似漫不經心,卻無縫組成如拼布般多彩而親切的篇章。在庶民日常間提煉日系乾燥幽默,無以名狀的神來之筆,讓人嘴角不爭氣地上揚。                                    
                                三位重量級斜槓影人竹中直人、山田孝之、齊藤工聯手改編「孤高天才漫畫家」大橋裕之的早期代表作品,力求原汁原味萃取原作精神,全片在漫畫家故鄉愛知縣蒲郡市拍攝,政府民間全員全力支持!將數個短篇故事串起,吉岡里帆、松田龍平、滿島真之介、國村隼等人輪番上陣,幕前幕後豪華陣容通力合作,打造趣味橫生的魔性小品。


获奖情况 (共1项)

第33届东京国际电影节 (2020)
  东京首映2020(提名)


影片参数
  1. Video
  2. ID                                       : 1
  3. Format                                   : AVC
  4. Format/Info                              : Advanced Video Codec
  5. Format profile                           : [email protected]
  6. Format settings                          : CABAC / 4 Ref Frames
  7. Format settings, CABAC                   : Yes
  8. Format settings, Reference frames        : 4 frames
  9. Codec ID                                 : V_MPEG4/ISO/AVC
  10. Duration                                 : 1 h 53 min
  11. Bit rate                                 : 8 949 kb/s
  12. Width                                    : 1 920 pixels
  13. Height                                   : 1 038 pixels
  14. Display aspect ratio                     : 1.85:1
  15. Frame rate mode                          : Constant
  16. Frame rate                               : 23.976 (24000/1001/189150) FPS
  17. Color space                              : YUV
  18. Chroma subsampling                       : 4:2:0
  19. Bit depth                                : 8 bits
  20. Scan type                                : Progressive
  21. Bits/(Pixel*Frame)                       : 0.187
  22. Stream size                              : 7.10 GiB (90%)
  23. Title                                    : -EA
  24. Writing library                          : x264 core 164 r3085+55M 938b6d0 t_mod_New [(8 & 10)[email protected] X86_64]
  25. Encoding settings                        : cabac=1 / ref=4 / deblock=1:-3:-3 / analyse=0x3:0x133 / me=umh / subme=10 / psy=1 / fade_compensate=0.00 / psy_rd=0.97:0.00 / mixed_ref=1 / me_range=32 / chroma_me=1 / trellis=2 / 8x8dct=1 / cqm=0 / deadzone=21,11 / fast_pskip=0 / chroma_qp_offset=-2 / threads=18 / lookahead_threads=4 / sliced_threads=0 / nr=0 / decimate=0 / interlaced=0 / bluray_compat=0 / constrained_intra=0 / fgo=0 / bframes=14 / b_pyramid=2 / b_adapt=2 / b_bias=0 / direct=3 / weightb=1 / open_gop=0 / weightp=2 / keyint=240 / keyint_min=23 / scenecut=40 / intra_refresh=0 / rc_lookahead=60 / rc=crf / mbtree=0 / crf=18.2000 / qcomp=0.65 / qpmin=0:0:0 / qpmax=69:69:69 / qpstep=4 / vbv_maxrate=62500 / vbv_bufsize=78125 / crf_max=0.0 / nal_hrd=none / filler=0 / ip_ratio=1.35 / pb_ratio=1.25 / aq=3:0.85 / aq-sensitivity=10.00 / aq-factor=1.00:1.00:1.00 / aq2=0 / aq3=0
  26. Language                                 : Japanese
  27. Default                                  : Yes
  28. Forced                                   : No
  29. Color range                              : Limited
  30. Color primaries                          : BT.709
  31. Transfer characteristics                 : BT.709
  32. Matrix coefficients                      : BT.709
  33. Audio
  34. ID                                       : 2
  35. Format                                   : E-AC-3
  36. Format/Info                              : Enhanced AC-3
  37. Commercial name                          : Dolby Digital Plus
  38. Codec ID                                 : A_EAC3
  39. Duration                                 : 1 h 53 min
  40. Bit rate mode                            : Constant
  41. Bit rate                                 : 1 024 kb/s
  42. Channel(s)                               : 6 channels
  43. Channel layout                           : L R C LFE Ls Rs
  44. Sampling rate                            : 48.0 kHz
  45. Frame rate                               : 31.250 FPS (1536 SPF)
  46. Compression mode                         : Lossy
  47. Stream size                              : 832 MiB (10%)
  48. Language                                 : Japanese
  49. Service kind                             : Complete Main
  50. Default                                  : Yes
  51. Forced                                   : No
  52. Text #1
  53. ID                                       : 3
  54. Format                                   : UTF-8
  55. Codec ID                                 : S_TEXT/UTF8
  56. Codec ID/Info                            : UTF-8 Plain Text
  57. Duration                                 : 1 h 52 min
  58. Bit rate                                 : 24 b/s
  59. Count of elements                        : 855
  60. Stream size                              : 20.5 KiB (0%)
  61. Title                                    : srt
  62. Language                                 : English
  63. Default                                  : Yes
  64. Forced                                   : No
  65. Text #2
  66. ID                                       : 4
  67. Format                                   : PGS
  68. Muxing mode                              : zlib
  69. Codec ID                                 : S_HDMV/PGS
  70. Codec ID/Info                            : Picture based subtitle format used on BDs/HD-DVDs
  71. Duration                                 : 1 h 52 min
  72. Bit rate                                 : 22.6 kb/s
  73. Count of elements                        : 1683
  74. Stream size                              : 18.2 MiB (0%)
  75. Title                                    : sup
  76. Language                                 : English
  77. Default                                  : No
  78. Forced                                   : No
  79. Menu
  80. 00:00:00.000                             : :Chapter 01
  81. 00:06:12.080                             : :Chapter 02
  82. 00:17:54.115                             : :Chapter 03
  83. 00:22:13.624                             : :Chapter 04
  84. 00:37:16.192                             : :Chapter 05
  85. 00:49:44.607                             : :Chapter 06
  86. 01:01:37.652                             : :Chapter 07
  87. 01:09:50.395                             : :Chapter 08
  88. 01:19:54.540                             : :Chapter 09
  89. 01:31:57.554                             : :Chapter 10
  90. 01:43:33.290                             : :Chapter 11
  91. 01:48:08.315                             : :Chapter 12
复制代码

反正我就废 Zokki.2020.JAPANESE.1080p.BluRay.x264.DDP5.1-EA 7.92GB

反正我就废 Zokki.2020.JAPANESE.1080p.BluRay.x264.DDP5.1-EA 7.92GB

反正我就废 Zokki.2020.JAPANESE.1080p.BluRay.x264.DDP5.1-EA 7.92GB

反正我就废 Zokki.2020.JAPANESE.1080p.BluRay.x264.DDP5.1-EA 7.92GB



蓝光高清网提示您 点击下方附件即可下载

反正我就废 Zokki.2020.JAPANESE.1080p.BluRay.x264.DDP5.1-EA 7.92GB

Zokki.2020.JAPANESE.1080p.BluRay.x264.DDP5.1-EA.torrent ( 20.43 KB )

加入蓝光高清网VIP会员  无限制下载本站所有资源---点这里

资源下载、资源播放、字幕使用、无法下载等常见问题---点这里
回复

使用道具 举报

全部回复0 显示全部楼层

发表回复

您需要登录后才可以回帖 登录 | 立即注册

本版积分规则

联系客服 关注微信 下载APP 返回顶部 返回列表