蓝光高清网

搜索
开启左侧

[喜剧] 直到命运将我们分开 Until.Luck.Do.Us.Apart.2012.PORTUGUESE.1080p.BluRay.x264.DD5.1-HANDJOB 7.93GB

蓝鸟 发表于 5 天前 | 显示全部楼层 |阅读模式

直到命运将我们分开 Until.Luck.Do.Us.Apart.2012.PORTUGUESE.1080p.BluRay.x264.DD5.1-HANDJOB 7.93GB ...

直到命运将我们分开 Until.Luck.Do.Us.Apart.2012.PORTUGUESE.1080p.BluRay.x264.DD5.1-HANDJOB 7.93GB ...


译  名 直到命运将我们分开 / 精明夫妻 / 富贵逼人来 / Till Luck Do Us Part
片  名 Até que a sorte nos separe
年  代 2012
产  地 巴西
类  别 喜剧
语  言 葡萄牙语 Português
上映日期 2012-10-05(巴西)
豆瓣评分 6.7/10 (87人评价)
片  长 104分钟
导  演 罗伯特·桑杜奇 Roberto Santucci
编  剧 保罗·库斯诺 Paulo Cursino
       古斯塔沃·赛尔巴斯 Gustavo Cerbasi
       Angélica Lopes 安杰莉卡·洛佩斯
演  员 莱昂德罗·哈森 Leandro Hassum
       丹妮尔·温特斯 Danielle Winits
       基科·马什卡雷尼亚什 Kiko Mascarenhas
       丽塔·埃尔默 Rita Elm?r
       埃尔顿·格瑞斯 Ailton Gra?a
       罗德里戈·桑塔纳 Rodrigo Sant''anna
       毛里西奥·谢尔曼 Maurício Sherman
       马赛罗·萨巴克 Marcelo Saback
       卡洛斯·博纳伍 Carlos Bonow
       马科斯·皮通博 Marcos Pitombo

简  介

提诺是一个健身教练,他虽然是个穷人,但是,有老婆和小孩,日子还是很开心的,直到老婆玩彩票,中了一亿元雷亚尔后,家里日子360度翻身,16年过去了,他已经成为三层赘肉的中年男人,而老婆一天的生活不是血拼,购物,美甲,整形,聚会,两小孩也是无节制花钱,而他家隔壁一个邻居阿毛里先生是一个投资顾问,什么都是按规划来生活,什么都是算的好好的,以避免人生发生变化,而因此也写了一本《财富5规则》的理财书,但是,就是什么都规划的人,生活毫无情趣,连老婆和他发生关系,想生个二胎娃,他都把二胎娃的后果和老婆一一分析,老婆郁闷无比,提诺因为长期挥霍,导致一亿元雷亚最终破产,和他交际多年的好朋友,也一个个离开他,而此刻,他的妻子和小孩还不知道破产事情,于是他去了银行,银行经理把他的邻居阿毛里介绍给他,阿毛里这时候建议他赶紧和老婆小孩说,可是,老婆这时候,却又怀了三胎,医生说...


影片参数
  1. Video
  2. ID                                       : 1
  3. Format                                   : AVC
  4. Format/Info                              : Advanced Video Codec
  5. Format profile                           : [email protected]
  6. Format settings                          : CABAC / 4 Ref Frames
  7. Format settings, CABAC                   : Yes
  8. Format settings, Reference frames        : 4 frames
  9. Codec ID                                 : V_MPEG4/ISO/AVC
  10. Duration                                 : 1 h 42 min
  11. Bit rate                                 : 10.4 Mb/s
  12. Width                                    : 1 920 pixels
  13. Height                                   : 1 080 pixels
  14. Display aspect ratio                     : 16:9
  15. Frame rate mode                          : Constant
  16. Frame rate                               : 23.976 (24000/1001/189150) FPS
  17. Color space                              : YUV
  18. Chroma subsampling                       : 4:2:0
  19. Bit depth                                : 8 bits
  20. Scan type                                : Progressive
  21. Bits/(Pixel*Frame)                       : 0.210
  22. Stream size                              : 7.45 GiB (94%)
  23. Writing library                          : x264 core 164 r3065 ae03d92
  24. Encoding settings                        : cabac=1 / ref=4 / deblock=1:-3:-3 / analyse=0x3:0x133 / me=umh / subme=10 / psy=1 / psy_rd=1.00:0.00 / mixed_ref=1 / me_range=32 / chroma_me=1 / trellis=2 / 8x8dct=1 / cqm=0 / deadzone=21,11 / fast_pskip=0 / chroma_qp_offset=-2 / threads=18 / lookahead_threads=4 / sliced_threads=0 / nr=0 / decimate=0 / interlaced=0 / bluray_compat=0 / constrained_intra=0 / bframes=16 / b_pyramid=2 / b_adapt=2 / b_bias=0 / direct=3 / weightb=1 / open_gop=0 / weightp=2 / keyint=240 / keyint_min=24 / scenecut=40 / intra_refresh=0 / rc_lookahead=60 / rc=crf / mbtree=0 / crf=20.0 / qcomp=0.60 / qpmin=0 / qpmax=69 / qpstep=4 / vbv_maxrate=62500 / vbv_bufsize=78125 / crf_max=0.0 / nal_hrd=none / filler=0 / ip_ratio=1.40 / pb_ratio=1.30 / aq=2:1.00
  25. Default                                  : Yes
  26. Forced                                   : No
  27. Color range                              : Limited
  28. Color primaries                          : BT.709
  29. Transfer characteristics                 : BT.709
  30. Matrix coefficients                      : BT.709
  31. Audio
  32. ID                                       : 2
  33. Format                                   : AC-3
  34. Format/Info                              : Audio Coding 3
  35. Commercial name                          : Dolby Digital
  36. Codec ID                                 : A_AC3
  37. Duration                                 : 1 h 42 min
  38. Bit rate mode                            : Constant
  39. Bit rate                                 : 640 kb/s
  40. Channel(s)                               : 6 channels
  41. Channel layout                           : L R C LFE Ls Rs
  42. Sampling rate                            : 48.0 kHz
  43. Frame rate                               : 31.250 FPS (1536 SPF)
  44. Compression mode                         : Lossy
  45. Stream size                              : 469 MiB (6%)
  46. Language                                 : Portuguese
  47. Service kind                             : Complete Main
  48. Default                                  : Yes
  49. Forced                                   : No
  50. Text #1
  51. ID                                       : 3
  52. Format                                   : UTF-8
  53. Codec ID                                 : S_TEXT/UTF8
  54. Codec ID/Info                            : UTF-8 Plain Text
  55. Duration                                 : 1 h 35 min
  56. Bit rate                                 : 70 b/s
  57. Count of elements                        : 1658
  58. Stream size                              : 49.1 KiB (0%)
  59. Language                                 : English
  60. Default                                  : Yes
  61. Forced                                   : No
  62. Text #2
  63. ID                                       : 4
  64. Format                                   : PGS
  65. Muxing mode                              : zlib
  66. Codec ID                                 : S_HDMV/PGS
  67. Codec ID/Info                            : Picture based subtitle format used on BDs/HD-DVDs
  68. Duration                                 : 1 h 35 min
  69. Bit rate                                 : 43.2 kb/s
  70. Count of elements                        : 3206
  71. Stream size                              : 29.5 MiB (0%)
  72. Language                                 : Portuguese
  73. Default                                  : No
  74. Forced                                   : No
  75. Menu
  76. 00:00:00.000                             : en:Chapter 1
  77. 00:10:37.554                             : en:Chapter 2
  78. 00:19:31.629                             : en:Chapter 3
  79. 00:31:15.248                             : en:Chapter 4
  80. 00:42:37.680                             : en:Chapter 5
  81. 00:55:29.493                             : en:Chapter 6
  82. 01:07:31.756                             : en:Chapter 7
  83. 01:14:34.762                             : en:Chapter 8
  84. 01:26:21.343                             : en:Chapter 9
  85. 01:36:49.512                             : en:Chapter 10
复制代码

直到命运将我们分开 Until.Luck.Do.Us.Apart.2012.PORTUGUESE.1080p.BluRay.x264.DD5.1-HANDJOB 7.93GB ...

直到命运将我们分开 Until.Luck.Do.Us.Apart.2012.PORTUGUESE.1080p.BluRay.x264.DD5.1-HANDJOB 7.93GB ...

直到命运将我们分开 Until.Luck.Do.Us.Apart.2012.PORTUGUESE.1080p.BluRay.x264.DD5.1-HANDJOB 7.93GB ...

直到命运将我们分开 Until.Luck.Do.Us.Apart.2012.PORTUGUESE.1080p.BluRay.x264.DD5.1-HANDJOB 7.93GB ...



蓝光高清网提示您 点击下方附件即可下载

直到命运将我们分开 Until.Luck.Do.Us.Apart.2012.PORTUGUESE.1080p.BluRay.x264.DD5.1-HANDJOB 7.93GB

Until.Luck.Do.Us.Apart.2012.PORTUGUESE.1080p.BluRay.x264.DD5.1-HANDJOB.torrent ( 20.49 KB )

加入蓝光高清网VIP会员  无限制下载本站所有资源---点这里

资源下载、资源播放、字幕使用、无法下载等常见问题---点这里
回复

使用道具 举报

全部回复0 显示全部楼层

发表回复

您需要登录后才可以回帖 登录 | 立即注册

本版积分规则

联系客服 关注微信 下载APP 返回顶部 返回列表