蓝光高清网

搜索
开启左侧

[惊悚] 与魔鬼同盟 Pact.With.The.Devil.2003.1080p.BluRay.x264-WATCHABLE 11.50GB

蓝鸟 发表于 5 天前 | 显示全部楼层 |阅读模式

与魔鬼同盟 Pact.With.The.Devil.2003.1080p.BluRay.x264-WATCHABLE 11.50GB

与魔鬼同盟 Pact.With.The.Devil.2003.1080p.BluRay.x264-WATCHABLE 11.50GB


译  名 与魔鬼同盟 / Pact with the Devil
片  名 Dorian
年  代 2001
产  地 英国 / 加拿大
类  别 惊悚 / 恐怖
语  言 英语
上映日期 2004-02-10
导  演 阿伦·A·戈尔德施泰因 Allan A. Goldstein
编  剧 彼得·乔宾 Peter Jobin
       奥斯卡·王尔德 Oscar Wilde
演  员 艾伦·大卫 Ellen David
       维多利亚·桑切斯 Victoria Sanchez
       詹妮弗·尼奇 Jennifer Nitsch
       Bronwen Booth Bronwen Booth
       伊森·埃里克森 Ethan Erickson
       凯伦·克里奇 Karen Cliche
       艾米·斯洛安 Amy Sloan
       马尔科姆·麦克道威尔 Malcolm McDowell
       克里斯托弗·瓦尔兹 Christoph Waltz
       阿伦·A·戈尔德施泰因 Allan A. Goldstein
       玛丽亚·罗姆 Maria Rohm
       哈利·阿兰·托尔斯 Harry Alan Towers
       Donald Paul Pemrick Donald Paul Pemrick
       Dean E. Fronk Dean E. Fronk
       埃里克·戈塞林 Erik Gosselin

简  介

在与著名摄影师肯尼斯·裴的摄影工作室暂时工作的时候,这位简单而又英俊的工人路易斯遇见了她的经纪人亨利,他对他的美貌留下了深刻的印象。他邀请路易斯拍一些照片,把多里安的艺术名称作为对“多里安·格雷”的致敬和他的相框画像。路易斯希望和多里安·格雷有着同样的命运,从这一刻开始,他在模特事业上变得非常成功。随着岁月的流逝,他注意到,只有他的画年代久远,而且他的面孔与几年前一样。


影片参数
  1. Video
  2. ID                                       : 1
  3. Format                                   : AVC
  4. Format/Info                              : Advanced Video Codec
  5. Format profile                           : [email protected]
  6. Format settings                          : CABAC / 4 Ref Frames
  7. Format settings, CABAC                   : Yes
  8. Format settings, Reference frames        : 4 frames
  9. Codec ID                                 : V_MPEG4/ISO/AVC
  10. Duration                                 : 1 h 28 min
  11. Bit rate                                 : 16.6 Mb/s
  12. Width                                    : 1 920 pixels
  13. Height                                   : 1 080 pixels
  14. Display aspect ratio                     : 16:9
  15. Frame rate mode                          : Constant
  16. Frame rate                               : 23.976 (24000/1001/189150) FPS
  17. Color space                              : YUV
  18. Chroma subsampling                       : 4:2:0
  19. Bit depth                                : 8 bits
  20. Scan type                                : Progressive
  21. Bits/(Pixel*Frame)                       : 0.335
  22. Stream size                              : 10.3 GiB (89%)
  23. Writing library                          : x264 core 164 r3094 bfc87b7
  24. Encoding settings                        : cabac=1 / ref=4 / deblock=1:-3:-3 / analyse=0x3:0x133 / me=umh / subme=9 / psy=1 / psy_rd=1.00:0.00 / mixed_ref=1 / me_range=16 / chroma_me=1 / trellis=2 / 8x8dct=1 / cqm=0 / deadzone=21,11 / fast_pskip=0 / chroma_qp_offset=-2 / threads=34 / lookahead_threads=2 / sliced_threads=0 / nr=0 / decimate=0 / interlaced=0 / bluray_compat=0 / constrained_intra=0 / bframes=3 / b_pyramid=2 / b_adapt=2 / b_bias=0 / direct=1 / weightb=1 / open_gop=0 / weightp=2 / keyint=250 / keyint_min=23 / scenecut=40 / intra_refresh=0 / rc=crf / mbtree=0 / crf=18.0 / qcomp=0.60 / qpmin=0 / qpmax=69 / qpstep=4 / ip_ratio=1.40 / pb_ratio=1.30 / aq=3:0.70
  25. Default                                  : Yes
  26. Forced                                   : No
  27. Color range                              : Limited
  28. Color primaries                          : BT.709
  29. Transfer characteristics                 : BT.709
  30. Matrix coefficients                      : BT.709
  31. Audio
  32. ID                                       : 2
  33. Format                                   : DTS XLL
  34. Format/Info                              : Digital Theater Systems
  35. Commercial name                          : DTS-HD Master Audio
  36. Codec ID                                 : A_DTS
  37. Duration                                 : 1 h 28 min
  38. Bit rate mode                            : Variable
  39. Bit rate                                 : 1 964 kb/s
  40. Channel(s)                               : 6 channels
  41. Channel layout                           : C L R Ls Rs LFE
  42. Sampling rate                            : 48.0 kHz
  43. Frame rate                               : 93.750 FPS (512 SPF)
  44. Bit depth                                : 16 bits
  45. Compression mode                         : Lossless
  46. Stream size                              : 1.21 GiB (11%)
  47. Title                                    : English
  48. Language                                 : English
  49. Default                                  : Yes
  50. Forced                                   : No
  51. Text #1
  52. ID                                       : 3
  53. Format                                   : UTF-8
  54. Codec ID                                 : S_TEXT/UTF8
  55. Codec ID/Info                            : UTF-8 Plain Text
  56. Duration                                 : 1 h 22 min
  57. Bit rate                                 : 51 b/s
  58. Count of elements                        : 1202
  59. Stream size                              : 31.1 KiB (0%)
  60. Title                                    : English Full SRT
  61. Language                                 : English
  62. Default                                  : No
  63. Forced                                   : No
  64. Text #2
  65. ID                                       : 4
  66. Format                                   : UTF-8
  67. Codec ID                                 : S_TEXT/UTF8
  68. Codec ID/Info                            : UTF-8 Plain Text
  69. Duration                                 : 1 h 22 min
  70. Bit rate                                 : 54 b/s
  71. Count of elements                        : 820
  72. Stream size                              : 33.0 KiB (0%)
  73. Title                                    : German Full SRT
  74. Language                                 : German
  75. Default                                  : No
  76. Forced                                   : No
  77. Text #3
  78. ID                                       : 5
  79. Format                                   : PGS
  80. Muxing mode                              : zlib
  81. Codec ID                                 : S_HDMV/PGS
  82. Codec ID/Info                            : Picture based subtitle format used on BDs/HD-DVDs
  83. Duration                                 : 1 h 22 min
  84. Bit rate                                 : 22.7 kb/s
  85. Count of elements                        : 1747
  86. Stream size                              : 13.4 MiB (0%)
  87. Title                                    : English Full PGS
  88. Language                                 : English
  89. Default                                  : No
  90. Forced                                   : No
  91. Text #4
  92. ID                                       : 6
  93. Format                                   : PGS
  94. Muxing mode                              : zlib
  95. Codec ID                                 : S_HDMV/PGS
  96. Codec ID/Info                            : Picture based subtitle format used on BDs/HD-DVDs
  97. Duration                                 : 1 h 22 min
  98. Bit rate                                 : 22.7 kb/s
  99. Count of elements                        : 1519
  100. Stream size                              : 13.4 MiB (0%)
  101. Title                                    : German Full PGS
  102. Language                                 : German
  103. Default                                  : No
  104. Forced                                   : No
  105. Menu
  106. 00:00:00.000                             : en:Chapter 01
  107. 00:08:25.505                             : en:Chapter 02
  108. 00:14:31.871                             : en:Chapter 03
  109. 00:21:25.284                             : en:Chapter 04
  110. 00:28:44.723                             : en:Chapter 05
  111. 00:37:07.225                             : en:Chapter 06
  112. 00:43:45.623                             : en:Chapter 07
  113. 00:50:38.035                             : en:Chapter 08
  114. 00:57:52.469                             : en:Chapter 09
  115. 01:06:13.970                             : en:Chapter 10
  116. 01:12:17.333                             : en:Chapter 11
  117. 01:22:14.930                             : en:Chapter 12
复制代码

与魔鬼同盟 Pact.With.The.Devil.2003.1080p.BluRay.x264-WATCHABLE 11.50GB

与魔鬼同盟 Pact.With.The.Devil.2003.1080p.BluRay.x264-WATCHABLE 11.50GB

与魔鬼同盟 Pact.With.The.Devil.2003.1080p.BluRay.x264-WATCHABLE 11.50GB

与魔鬼同盟 Pact.With.The.Devil.2003.1080p.BluRay.x264-WATCHABLE 11.50GB



蓝光高清网提示您 点击下方附件即可下载

与魔鬼同盟 Pact.With.The.Devil.2003.1080p.BluRay.x264-WATCHABLE 11.50GB

Pact.With.The.Devil.2003.1080p.BluRay.x264-WATCHABLE.torrent ( 15.05 KB )

加入蓝光高清网VIP会员  无限制下载本站所有资源---点这里

资源下载、资源播放、字幕使用、无法下载等常见问题---点这里
回复

使用道具 举报

全部回复0 显示全部楼层

发表回复

您需要登录后才可以回帖 登录 | 立即注册

本版积分规则

联系客服 关注微信 下载APP 返回顶部 返回列表