蓝光高清网

搜索
开启左侧

[冒险] 大地之主 Master.Of.The.World.1983.DUBBED.1080p.BluRay.x264-WATCHABLE 15.45GB

蓝鸟 发表于 5 天前 | 显示全部楼层 |阅读模式

大地之主 Master.Of.The.World.1983.DUBBED.1080p.BluRay.x264-WATCHABLE 15.45GB

大地之主 Master.Of.The.World.1983.DUBBED.1080p.BluRay.x264-WATCHABLE 15.45GB


译  名 大地之主 / Master of the World
片  名 I padroni del mondo
年  代 1983
产  地 意大利
类  别 冒险
语  言 意大利语
上映日期 1983
片  长 105分钟
导  演 阿尔贝托·卡瓦卢奈 Alberto Cavallone
编  剧 阿尔贝托·卡瓦卢奈 Alberto Cavallone
演  员 阿尔多·桑布雷利 Aldo Sambrell
       扎伊拉·佐克杜 Zaira Zoccheddu
       Alberto Baldan Bembo Alberto Baldan Bembo
       Rosario Prestopino Rosario Prestopino


影片参数
  1. Video
  2. ID                                       : 1
  3. Format                                   : AVC
  4. Format/Info                              : Advanced Video Codec
  5. Format profile                           : [email protected]
  6. Format settings                          : CABAC / 4 Ref Frames
  7. Format settings, CABAC                   : Yes
  8. Format settings, Reference frames        : 4 frames
  9. Codec ID                                 : V_MPEG4/ISO/AVC
  10. Duration                                 : 1 h 44 min
  11. Bit rate                                 : 20.2 Mb/s
  12. Width                                    : 1 920 pixels
  13. Height                                   : 1 036 pixels
  14. Display aspect ratio                     : 1.85:1
  15. Frame rate mode                          : Constant
  16. Frame rate                               : 23.976 (24000/1001/189150) FPS
  17. Color space                              : YUV
  18. Chroma subsampling                       : 4:2:0
  19. Bit depth                                : 8 bits
  20. Scan type                                : Progressive
  21. Bits/(Pixel*Frame)                       : 0.423
  22. Stream size                              : 14.8 GiB (96%)
  23. Writing library                          : x264 core 164 r3094 bfc87b7
  24. Encoding settings                        : cabac=1 / ref=4 / deblock=1:-3:-3 / analyse=0x3:0x133 / me=umh / subme=9 / psy=1 / psy_rd=1.00:0.00 / mixed_ref=1 / me_range=16 / chroma_me=1 / trellis=2 / 8x8dct=1 / cqm=0 / deadzone=21,11 / fast_pskip=0 / chroma_qp_offset=-2 / threads=32 / lookahead_threads=2 / sliced_threads=0 / nr=0 / decimate=0 / interlaced=0 / bluray_compat=0 / constrained_intra=0 / bframes=3 / b_pyramid=2 / b_adapt=2 / b_bias=0 / direct=1 / weightb=1 / open_gop=0 / weightp=2 / keyint=250 / keyint_min=23 / scenecut=40 / intra_refresh=0 / rc=crf / mbtree=0 / crf=20.5 / qcomp=0.60 / qpmin=0 / qpmax=69 / qpstep=4 / ip_ratio=1.40 / pb_ratio=1.30 / aq=3:0.70
  25. Default                                  : Yes
  26. Forced                                   : No
  27. Color range                              : Limited
  28. Color primaries                          : BT.709
  29. Transfer characteristics                 : BT.709
  30. Matrix coefficients                      : BT.709
  31. Audio
  32. ID                                       : 2
  33. Format                                   : FLAC
  34. Format/Info                              : Free Lossless Audio Codec
  35. Codec ID                                 : A_FLAC
  36. Duration                                 : 1 h 44 min
  37. Bit rate mode                            : Variable
  38. Bit rate                                 : 895 kb/s
  39. Channel(s)                               : 2 channels
  40. Channel layout                           : L R
  41. Sampling rate                            : 48.0 kHz
  42. Frame rate                               : 10.417 FPS (4608 SPF)
  43. Bit depth                                : 24 bits
  44. Compression mode                         : Lossless
  45. Stream size                              : 671 MiB (4%)
  46. Title                                    : English
  47. Writing library                          : Lavf59.20.101
  48. Language                                 : English
  49. Default                                  : Yes
  50. Forced                                   : No
  51. Text #1
  52. ID                                       : 3
  53. Format                                   : UTF-8
  54. Codec ID                                 : S_TEXT/UTF8
  55. Codec ID/Info                            : UTF-8 Plain Text
  56. Duration                                 : 1 h 44 min
  57. Bit rate                                 : 9 b/s
  58. Count of elements                        : 392
  59. Stream size                              : 7.45 KiB (0%)
  60. Title                                    : English SDH SRT
  61. Language                                 : English
  62. Default                                  : No
  63. Forced                                   : No
  64. Text #2
  65. ID                                       : 4
  66. Format                                   : PGS
  67. Muxing mode                              : zlib
  68. Codec ID                                 : S_HDMV/PGS
  69. Codec ID/Info                            : Picture based subtitle format used on BDs/HD-DVDs
  70. Duration                                 : 1 h 44 min
  71. Bit rate                                 : 6 371 b/s
  72. Count of elements                        : 785
  73. Stream size                              : 4.77 MiB (0%)
  74. Title                                    : English SDH PGS
  75. Language                                 : English
  76. Default                                  : No
  77. Forced                                   : No
  78. Menu
  79. 00:00:00.000                             : en:Chapter 01
  80. 00:11:26.186                             : en:Chapter 02
  81. 00:35:55.654                             : en:Chapter 03
  82. 00:54:27.264                             : en:Chapter 04
  83. 01:12:11.327                             : en:Chapter 05
  84. 01:27:45.761                             : en:Chapter 06
复制代码

大地之主 Master.Of.The.World.1983.DUBBED.1080p.BluRay.x264-WATCHABLE 15.45GB

大地之主 Master.Of.The.World.1983.DUBBED.1080p.BluRay.x264-WATCHABLE 15.45GB

大地之主 Master.Of.The.World.1983.DUBBED.1080p.BluRay.x264-WATCHABLE 15.45GB

大地之主 Master.Of.The.World.1983.DUBBED.1080p.BluRay.x264-WATCHABLE 15.45GB



蓝光高清网提示您 点击下方附件即可下载

大地之主 Master.Of.The.World.1983.DUBBED.1080p.BluRay.x264-WATCHABLE 15.45GB

Master.Of.The.World.1983.DUBBED.1080p.BluRay.x264-WATCHABLE.torrent ( 20 KB )

加入蓝光高清网VIP会员  无限制下载本站所有资源---点这里

资源下载、资源播放、字幕使用、无法下载等常见问题---点这里
回复

使用道具 举报

全部回复0 显示全部楼层

发表回复

您需要登录后才可以回帖 登录 | 立即注册

本版积分规则

联系客服 关注微信 下载APP 返回顶部 返回列表