蓝光高清网

搜索
开启左侧

[喜剧] 梦公园之屋 The.House.in.Nightmare.Park.1973.FS.1080p.BluRay.x264-PEGASUS 6.80GB

蓝鸟 发表于 5 天前 | 显示全部楼层 |阅读模式


标  题 梦公园之屋
片  名 The House in Nightmare Park
年  代 1973
产  地 英国
类  别 喜剧 / 悬疑 / 惊悚 / 恐怖
语  言 英语
上映日期 1973
IMDb评分 5.8/10 (658人评价)
片  长 100 分钟
导  演 彼得·赛克斯 Peter Sykes
编  剧 克里夫·埃克斯顿 Clive Exton
       特瑞·内辛 Terry Nation
演  员 弗兰基·豪尔德 Frankie Howerd
       雷·米兰德 Ray Milland
       罗莎莉·克拉切利 Rosalie Crutchley
       Aimée Delamain Aimée Delamain
       Ruth Dunning Ruth Dunning
       约翰·贝内特 John Bennett
       肯尼思·格里菲思 Kenneth Griffith
       Peter Munt Peter Munt
       休·伯登 Hugh Burden
标  签 英国电影 / 惊悚 / 悬疑 / 恐怖 / 喜剧

简  介

In 1907, an actor is invited to perform in an isolated country house, and becomes involved in mysterious and dangerous events.


影片参数
  1. Video
  2. ID                                       : 1
  3. Format                                   : AVC
  4. Format/Info                              : Advanced Video Codec
  5. Format profile                           : [email protected]
  6. Format settings                          : CABAC / 5 Ref Frames
  7. Format settings, CABAC                   : Yes
  8. Format settings, Reference frames        : 5 frames
  9. Codec ID                                 : V_MPEG4/ISO/AVC
  10. Duration                                 : 1 h 35 min
  11. Bit rate                                 : 9 777 kb/s
  12. Width                                    : 1 426 pixels
  13. Height                                   : 1 072 pixels
  14. Display aspect ratio                     : 4:3
  15. Frame rate mode                          : Constant
  16. Frame rate                               : 24.000 FPS
  17. Color space                              : YUV
  18. Chroma subsampling                       : 4:2:0
  19. Bit depth                                : 8 bits
  20. Scan type                                : Progressive
  21. Bits/(Pixel*Frame)                       : 0.266
  22. Stream size                              : 6.54 GiB (96%)
  23. Writing library                          : x264 core 164 r3094 bfc87b7
  24. Encoding settings                        : cabac=1 / ref=5 / deblock=1:-3:-3 / analyse=0x3:0x133 / me=umh / subme=11 / psy=1 / psy_rd=1.02:0.00 / mixed_ref=1 / me_range=32 / chroma_me=1 / trellis=2 / 8x8dct=1 / cqm=0 / deadzone=21,11 / fast_pskip=0 / chroma_qp_offset=-2 / threads=33 / lookahead_threads=8 / sliced_threads=0 / nr=0 / decimate=0 / interlaced=0 / bluray_compat=0 / constrained_intra=0 / bframes=16 / b_pyramid=2 / b_adapt=2 / b_bias=0 / direct=3 / weightb=1 / open_gop=0 / weightp=2 / keyint=250 / keyint_min=24 / scenecut=40 / intra_refresh=0 / rc_lookahead=250 / rc=crf / mbtree=0 / crf=19.0 / qcomp=0.60 / qpmin=0 / qpmax=69 / qpstep=4 / vbv_maxrate=62500 / vbv_bufsize=78125 / crf_max=0.0 / nal_hrd=none / filler=0 / ip_ratio=1.30 / pb_ratio=1.20 / aq=3:0.80
  25. Default                                  : Yes
  26. Forced                                   : No
  27. Color range                              : Limited
  28. Color primaries                          : BT.709
  29. Matrix coefficients                      : BT.709

  30. Audio
  31. ID                                       : 2
  32. Format                                   : FLAC
  33. Format/Info                              : Free Lossless Audio Codec
  34. Codec ID                                 : A_FLAC
  35. Duration                                 : 1 h 35 min
  36. Bit rate mode                            : Variable
  37. Bit rate                                 : 338 kb/s
  38. Channel(s)                               : 2 channels
  39. Channel layout                           : L R
  40. Sampling rate                            : 48.0 kHz
  41. Frame rate                               : 11.719 FPS (4096 SPF)
  42. Bit depth                                : 16 bits
  43. Compression mode                         : Lossless
  44. Stream size                              : 232 MiB (3%)
  45. Writing library                          : libFLAC 1.2.1 (UTC 2007-09-17)
  46. Language                                 : English
  47. Default                                  : Yes
  48. Forced                                   : No

  49. Text
  50. ID                                       : 3
  51. Format                                   : PGS
  52. Muxing mode                              : zlib
  53. Codec ID                                 : S_HDMV/PGS
  54. Codec ID/Info                            : Picture based subtitle format used on BDs/HD-DVDs
  55. Duration                                 : 1 h 34 min
  56. Bit rate                                 : 112 kb/s
  57. Count of elements                        : 5081
  58. Stream size                              : 75.7 MiB (1%)
  59. Language                                 : English
  60. Default                                  : No
  61. Forced                                   : No

  62. Menu
  63. 00:00:00.000                             : :Chapter 01
  64. 00:07:51.250                             : :Chapter 02
  65. 00:15:00.417                             : :Chapter 03
  66. 00:23:56.083                             : :Chapter 04
  67. 00:35:22.583                             : :Chapter 05
  68. 00:40:02.583                             : :Chapter 06
  69. 00:45:00.667                             : :Chapter 07
  70. 00:51:26.542                             : :Chapter 08
  71. 01:00:03.958                             : :Chapter 09
  72. 01:07:39.333                             : :Chapter 10
  73. 01:15:32.083                             : :Chapter 11
  74. 01:24:08.375                             : :Chapter 12
复制代码



蓝光高清网提示您 点击下方附件即可下载

梦公园之屋 The.House.in.Nightmare.Park.1973.FS.1080p.BluRay.x264-PEGASUS 6.80GB

The.House.in.Nightmare.Park.1973.FS.1080p.BluRay.x264-PEGASUS.torrent ( 17.79 KB )

加入蓝光高清网VIP会员  无限制下载本站所有资源---点这里

资源下载、资源播放、字幕使用、无法下载等常见问题---点这里
回复

使用道具 举报

全部回复0 显示全部楼层

发表回复

您需要登录后才可以回帖 登录 | 立即注册

本版积分规则

联系客服 关注微信 下载APP 返回顶部 返回列表