蓝光高清网

搜索
开启左侧

埃塞克斯的蛇 / 雅息士之蛇(港)/埃塞克斯之蛇4k.The.Essex.Serpent.S01E01.HDR.2160p.WEB.H265-4k美剧下载-8.81 GB

蓝鸟 发表于 5 天前 | 显示全部楼层 |阅读模式
埃塞克斯之蛇 豆瓣评分: 无评分

状态:第一季(更新至第2集 共?集)
上映时间:2022-05-13
类型:剧情 
地区:英国
导演:克里欧·巴纳德
主演:克莱尔·丹妮丝 / 汤姆·希德勒斯顿 / 弗兰克·迪兰 / 克蕾曼丝·波西 / 海莉·斯奎尔斯
画质标准:4K(3840x2160) 封装音轨:5.1声道 音轨编码:其他DD
剧情简介
  本剧改编自Sarah Perry的同名小说,讲述刚丧偶的Cora Seaborne(Claire Danes 饰),从伦敦搬去了埃塞克斯郡,调查关于一条神秘之蛇的传闻。Cora与村里的牧师Will Ransome(Tom Hiddleston 饰)建立起了意料之外的纽带,但当悲剧来临时,当地人指控她吸引了这种神秘生物....
本帖最后由 蓝鸟 于 2022-5-14 09:55 编辑

影片参数
埃塞克斯的蛇 / 雅息士之蛇(港)/埃塞克斯之蛇4k.The.Essex.Serpent.S01E01.HDR.2160p.WEB.H265-4k美剧信息
Video
ID : 1
Format : HEVC
Format/Info : High Efficiency Video Coding
Format profile : Main 10@L5@High
HDR format : SMPTE ST 2086, HDR10 compatible
Codec ID : V_MPEGH/ISO/HEVC
Duration : 50 min 9 s
Bit rate : 23.9 Mb/s
Width : 3 840 pixels
Height : 2 160 pixels
Display aspect ratio : 16:9
Frame rate mode : Constant
Frame rate : 23.976 (24000/1001) FPS
Color space : YUV
Chroma subsampling : 4:2:0 (Type 2)
Bit depth : 10 bits
Bits/(Pixel*Frame) : 0.120
Stream size : 8.37 GiB (95%)
Language : English
Default : Yes
Forced : No
Color range : Limited
Color primaries : BT.2020
Transfer characteristics : PQ
Matrix coefficients : BT.2020 non-constant
Mastering display color primaries : Display P3
Mastering display luminance : min: 0.0050 cd/m2, max: 1000 cd/m2
Maximum Content Light Level : 1089 cd/m2
Maximum Frame-Average Light Level : 57 cd/m2


Audio
ID : 2
Format : E-AC-3 JOC
Format/Info : Enhanced AC-3 with Joint Object Coding
Commercial name : Dolby Digital Plus with Dolby Atmos
Codec ID : A_EAC3
Duration : 50 min 9 s
Bit rate mode : Constant
Bit rate : 768 kb/s
Channel(s) : 6 channels
Channel layout : L R C LFE Ls Rs
Sampling rate : 48.0 kHz
Frame rate : 31.250 FPS (1536 SPF)
Compression mode : Lossy
Stream size : 275 MiB (3%)
Language : English
Service kind : Complete Main
Default : Yes
Forced : No
Complexity index : 16
Number of dynamic objects : 15
Bed channel count : 1 channel
Bed channel configuration : LFE


Text #1
ID : 3
Format : UTF-8
Codec ID : S_TEXT/UTF8
Codec ID/Info : UTF-8 Plain Text
Title : English
Language : English
Default : No
Forced : No


Text #2
ID : 4
Format : UTF-8
Codec ID : S_TEXT/UTF8
Codec ID/Info : UTF-8 Plain Text
Title : Arabic
Language : Arabic
Default : No
Forced : No


Text #3
ID : 5
Format : UTF-8
Codec ID : S_TEXT/UTF8
Codec ID/Info : UTF-8 Plain Text
Title : Bulgarian
Language : Bulgarian
Default : No
Forced : No


Text #4
ID : 6
Format : UTF-8
Codec ID : S_TEXT/UTF8
Codec ID/Info : UTF-8 Plain Text
Title : Chinese Simplified
Language : Chinese
Default : No
Forced : No


Text #5
ID : 7
Format : UTF-8
Codec ID : S_TEXT/UTF8
Codec ID/Info : UTF-8 Plain Text
Title : Chinese Traditional
Language : Chinese
Default : No
Forced : No


Text #6
ID : 8
Format : UTF-8
Codec ID : S_TEXT/UTF8
Codec ID/Info : UTF-8 Plain Text
Title : Chinese Yue
Language : Chinese
Default : No
Forced : No

蓝光高清网提示您 点击下方附件名称 即可开始下载


多版本下载时请注意区分


埃塞克斯的蛇 / 雅息士之蛇(港)/埃塞克斯之蛇4k.The.Essex.Serpent.S01E01.HDR.2160p.WEB.H265-4k美剧下载

埃塞克斯之蛇4k.The.Essex.Serpent.S01E01.HDR.2160p.WEB.H265自带简繁中字【8.81 GB】

埃塞克斯之蛇4k.The.Essex.Serpent.S01E01.HDR.2160p.WEB.H265-GLHF.torrent ( 22.76 KB )



埃塞克斯之蛇4k.The.Essex.Serpent.S01E01.2160p.WEB.H265自带简繁中字【7.73 GB】

埃塞克斯之蛇4k.The.Essex.Serpent.S01E01.2160p.WEB.H265.torrent ( 20.15 KB )



埃塞克斯之蛇4k.The.Essex.Serpent.S01E02.2160p.WEB.H265自带简繁中字【7.72 GB】

埃塞克斯之蛇4k.The.Essex.Serpent.S01E02.2160p.WEB.H265-GLHF.torrent ( 20.13 KB )



埃塞克斯之蛇4k.The.Essex.Serpent.S01E02.HDR.2160p.WEB.H265自带简繁中字【8.96 GB】

埃塞克斯之蛇4k.The.Essex.Serpent.S01E02.HDR.2160p.WEB.H265-GGEZ.torrent ( 23.13 KB )


加入蓝光高清网VIP会员  无限制下载本站所有资源---点这里

资源下载、资源播放、字幕使用、无法下载等常见问题---点这里
回复

使用道具 举报

全部回复0 显示全部楼层

发表回复

您需要登录后才可以回帖 登录 | 立即注册

本版积分规则

联系客服 关注微信 下载APP 返回顶部 返回列表