蓝光高清网

搜索
开启左侧

恶鬼无情/爱的怪物论4k.Monstrous.2022.2160p.WEB-DL.x265.10bit.SDR.DD5.1-4k电影下载-7.62 GB

蓝鸟 发表于 5 天前 | 显示全部楼层 |阅读模式
爱的怪物论 豆瓣评分: 无评分
上映时间:2022年
类型:惊悚 悬疑 
地区:美国 
导演:克里斯·赛弗森
主演:克里斯蒂娜·里奇 / 桑蒂诺·巴纳德 / Don Baldaramos / 考林·加普 / 卢·坦普尔
画质标准:4K SDR  封装音轨:Dolby TrueHD 5.1 
简       介
+ A2 {0 v: M6 W/ U2 l0 [5 V' c/ D+ D9 B: u9 T1 I, K, F
  《去死吧!啦啦隊》美國導演克里斯席維森重返金馬奇幻影展的新作《愛的怪物論》,邀來《阿達一族》超酷女孩「星期三」克莉絲汀蕾琪領銜主演,當年鬼靈精怪的少女成了飽受風霜的單親媽媽,帶著兒子遠赴邊陲小鎮重新開始,原以為新生活就要展開,沒想到這次不僅要面對自己的心魔,還要挺身抵抗真正的「怪物」。影片巧妙致敬《迷魂記》與《剃刀邊緣》,更被美國影評譽為對怪物類型電影做出全新的演繹。, J7 r, H; W+ M# L$ ^  [9 d8 h
% N7 r4 _" M/ Q' }
2 f! L" O* R9 C8 [% ]6 f4 P
影片参数
$ G9 ~# p" I5 r5 H# S+ j
恶鬼无情/爱的怪物论4k.Monstrous.2022.2160p.WEB-DL.x265.10bit.SDR.DD5.1-4k电影信息
! h$ V# i. q" C- rVideo
( k& b. q# U, [: [) @8 xID : 19 \/ R; X  a) \; ^
Format : HEVC$ g: m; a0 l6 J3 i" f; y
Format/Info : High Efficiency Video Coding, f- f& V+ u1 P
Format profile : Main 10@L5@High( h4 S3 G# A1 Q4 x. [; B
Codec ID : V_MPEGH/ISO/HEVC
% A6 d  H: r/ R9 [Duration : 1 h 28 min
: X3 ~" s% Z9 x, W( wBit rate : 11.9 Mb/s% q6 Z: z6 ^2 I& ^) q) o  i
Width : 3 836 pixels0 y; x$ J) ]( Z2 b3 D1 W
Height : 1 600 pixels. }/ m) K, T  _8 h- @
Display aspect ratio : 2.40:1
8 g7 k5 B$ _2 B" l% fOriginal display aspect ratio : 2.40:1
2 e: ?. H9 y. bFrame rate mode : Constant! U4 r" A, Y: Z6 r; [
Frame rate : 23.976 FPS
. Q3 h! k& L/ P; z" y* OColor space : YUV3 X% T3 C8 j0 v4 p0 G0 a
Chroma subsampling : 4:2:0
, F1 D( m) V# H( b. }- q: G/ HBit depth : 10 bits. M& p* {# c7 X4 F
Bits/(Pixel*Frame) : 0.081" P- T4 i) Y) K. G/ e0 O
Stream size : 7.38 GiB (97%)
- L! @2 l& W" |/ V% GDefault : Yes
( E  L- I$ o# |6 l  m% g6 E; fForced : No
9 M# z" p# f3 L% `# t8 y+ b( U/ e  ~Color range : Limited3 S3 [& {& [$ W
Color primaries : BT.7091 P0 j* Z2 q# N* \& s9 d+ P
Transfer characteristics : BT.709, t8 W7 J/ A( m* p
Matrix coefficients : BT.7092 l; Q) ?; b$ S, t
; `+ q# p+ _' O9 N' V

# s4 r  G7 b1 t0 VAudio6 V6 A0 q5 M: y' ]# A3 S3 t3 t
ID : 22 W6 \, t. Q) F2 ^$ Y
Format : AC-3
2 G& M- f* c6 o% h4 I0 cFormat/Info : Audio Coding 38 h( T1 A2 p" y9 D
Commercial name : Dolby Digital% G5 _. j% X) i9 m
Codec ID : A_AC3
4 j3 w. c3 W' hDuration : 1 h 28 min* a' F2 {5 N1 @5 T2 K% ^8 _: Q  g% \
Bit rate mode : Constant
$ d+ A1 e# [8 r; b% iBit rate : 384 kb/s3 D  j: G; J! j4 P. x# v
Channel(s) : 6 channels5 V" f. h: g! i8 u2 q
Channel layout : L R C LFE Ls Rs
8 b2 ^, U6 a) X, YSampling rate : 48.0 kHz" S/ M6 L& R! b
Frame rate : 31.250 FPS (1536 SPF). g/ V& s( G' l$ q% [' V1 N1 Q
Compression mode : Lossy
& a- S% k0 k4 }& ~' BStream size : 243 MiB (3%)1 D/ F9 y8 B: g" `6 }4 v' ?
Language : English7 R4 K* s: R9 g& J! ~
Service kind : Complete Main
& V* d( b/ H2 s/ c  dDefault : Yes3 v5 i- ?4 c' u  Z) \/ M
Forced : No
, o2 L; F8 c! M3 |" K- W
1 p7 C" x9 M/ H" e
' _4 ]. s' p4 H. w5 M/ ^! d/ e
Text
& x4 [: t! K. j; d, s* YID : 3
+ R. u8 l; N' R$ s; SFormat : UTF-8
5 D$ J& f' f# M) G5 f  @Codec ID : S_TEXT/UTF8
7 J* p$ h3 j3 `' k8 ECodec ID/Info : UTF-8 Plain Text
; E& T# s' A5 B0 E5 qDuration : 1 h 23 min
/ l1 A1 m/ B$ J3 fBit rate : 39 b/s
# X$ Z. H! Q: _Count of elements : 972) [* f( S& w9 U
Stream size : 23.9 KiB (0%)% ~4 k. ~, D$ {2 z
Language : English3 V6 ^7 J6 `5 R3 A! _, j% p
Default : Yes, q: K$ e1 L" k, O! s
Forced : No
5 y4 ?4 d5 s% S% T; l
8 e5 b" O5 T2 J0 I
蓝光高清网提示您 点击下方附件名称 即可开始下载
7 n1 }# a  [- a" T. _" O! C- Y1 K9 V
* @6 Z: q: E* T% Y; X: @. P
0 _3 T* _% e* P$ F9 C1 n& s- i
恶鬼无情/爱的怪物论4k.Monstrous.2022.2160p.WEB-DL.x265.10bit.SDR.DD5.1-4k电影下载& \3 ~% u8 s! r; @# l3 W* F

3 z' y8 n8 s, ~& A7 r爱的怪物论4k.Monstrous.2022.2160p.WEB-DL.x265.10bit.SDR.DD5.1【4k SDR 7.62 GB】
4 W9 ^7 P* G5 U, ]$ D7 L6 W

爱的怪物论4k.Monstrous.2022.2160p.WEB-DL.x265.10bit.SDR.DD5.1-NOGRP.torrent ( 19.68 KB )

* {6 i# D- _$ G' D  p# Q8 q

% b1 H9 U! }( g8 ]
加入蓝光高清网VIP会员  无限制下载本站所有资源---点这里

资源下载、资源播放、字幕使用、无法下载等常见问题---点这里
回复

使用道具 举报

全部回复1 显示全部楼层
dongshouba手机认证 发表于 3 天前 | 显示全部楼层
感谢分享
回复

使用道具 举报

发表回复

您需要登录后才可以回帖 登录 | 立即注册

本版积分规则

联系客服 关注微信 下载APP 返回顶部 返回列表