蓝光高清网

搜索
开启左侧

球鞋奇缘(台)/球鞋灰姑娘4k.Sneakerella.2022.2160p.DSNP.WEB-DL.x265.10bit.HDR.DDP5.1.Atmos-4k电影下载-13.35 GB

蓝鸟 发表于 5 天前 | 显示全部楼层 |阅读模式
球鞋灰姑娘 豆瓣评分: 无评分
上映时间:2022年
类型:喜剧 歌舞 
地区:美国 
导演:伊丽莎白·艾伦
主演:乔森·雅各布 / 莱克西·安德伍德 / 科尔顿·斯图尔特 / 罗维娜·亚瓦里 / 约翰·萨利
画质标准:4K HDR  封装音轨:Dolby TrueHD 5.1 Dolby Atmos 
简       介
" X& f) O! ^! ?7 W1 D, ?0 u! Z; J9 w+ t4 l0 D) \
  以纽约市的运动鞋文化为背景的灰姑娘的现代转折。' Q1 t+ n0 C: c# R

+ b; x2 @& e. |. R+ N& v
: P# \& U+ B" q: @
影片参数& H' f1 u4 `0 `3 K0 }# B7 D
球鞋奇缘(台)/球鞋灰姑娘4k.Sneakerella.2022.2160p.DSNP.WEB-DL.x265.10bit.HDR.DDP5.1.Atmos-4k电影信息
: ]4 F+ y2 J$ q' F3 ?4 XVideo
& z- ~4 ^6 C. M% H9 V& N5 aID : 1
9 E+ t8 l: k0 Y  O( G" L3 zFormat : HEVC* j% t  f( |& N
Format/Info : High Efficiency Video Coding
4 W  W; r7 ^9 m# n0 AFormat profile : Main 10@L5@High
$ U" K+ m% P5 s9 u& `$ hHDR format : SMPTE ST 2086, HDR10 compatible% s4 e. @" ?( c5 V+ c: W
Codec ID : V_MPEGH/ISO/HEVC- w! W8 q+ X2 q3 G4 y- d1 q) }0 U
Duration : 1 h 50 min8 m, [8 S( A+ m) r
Bit rate : 16.5 Mb/s- l6 R6 \/ M4 }  y
Width : 3 840 pixels
1 c2 N3 P, c( z) U" P$ s. FHeight : 2 160 pixels
7 c& G9 `! t' X; o. UDisplay aspect ratio : 16:91 i7 D- z& P4 R
Frame rate mode : Constant- P$ j* R- ~+ v
Frame rate : 23.976 (24000/1001) FPS
! |6 p7 v- ^6 k: @6 e6 _# S$ O7 hColor space : YUV
2 ^7 n3 |- x& UChroma subsampling : 4:2:06 H) [" i$ j) w$ x: |- ~4 \4 y
Bit depth : 10 bits
, R6 g/ N. {/ U& E; M) k) ^$ N$ X8 kBits/(Pixel*Frame) : 0.083
1 t0 u8 A( |  Q6 EStream size : 12.7 GiB (96%)% J6 {/ Q4 v# i$ z5 H  j8 C: f/ N
Default : No
$ m( L3 d& s" B( mForced : No
; {6 h6 D! z" J! Y0 q. oColor range : Limited8 k3 s5 b$ f/ }$ M) x2 B
Color primaries : BT.2020
3 ], h5 N0 Z2 f* uTransfer characteristics : PQ
- L: w9 [/ K- B* o, aMatrix coefficients : BT.2020 non-constant% Q# f) `4 |' W8 e6 o8 ^
Mastering display color primaries : Display P3
. ]1 h3 f3 F9 s4 i2 |Mastering display luminance : min: 0.0001 cd/m2, max: 1000 cd/m2
( q( x' t, }: i# u, d5 F) X
5 R, U& K, j2 F+ `

$ z2 v) v2 r, j4 JAudio, j% u# W( \' X- y
ID : 2
; K, S( B+ g& jFormat : E-AC-3 JOC' H* r3 a- P% R$ ^" P
Format/Info : Enhanced AC-3 with Joint Object Coding
  U8 {/ X2 G1 SCommercial name : Dolby Digital Plus with Dolby Atmos0 M6 d7 M0 n8 \4 N. X- g
Codec ID : A_EAC3
8 p3 M6 c5 J' d/ ~  EDuration : 1 h 50 min
' O# y4 Z, S) aBit rate mode : Constant
4 |1 C4 k9 }( `Bit rate : 768 kb/s
+ Y6 p2 t0 X8 t; z1 iChannel(s) : 6 channels
, L; M% i; D+ d8 E+ ?2 OChannel layout : L R C LFE Ls Rs
( K% r8 l2 p4 E$ y! r" h9 ~  \Sampling rate : 48.0 kHz
# w: O1 J/ z' ZFrame rate : 31.250 FPS (1536 SPF)  w1 q/ Q; P1 T9 q% f% N
Compression mode : Lossy
" F! e/ j" W4 U6 n( f1 Y  D- ~Stream size : 609 MiB (4%)
$ [! z# ]' Q5 lLanguage : English
  y' _% R; `* m# N, `, AService kind : Complete Main
* M7 g0 z- n6 }. d  ODefault : No
5 q* Z- Q5 U3 `' u: D. JForced : No
+ B$ C* b( p3 x& B3 iComplexity index : 16" g+ X" S3 }+ Q- I  r
Number of dynamic objects : 15/ H) U$ V- Q/ U5 y4 c: X
Bed channel count : 1 channel
6 z2 L, j$ n2 }) H; v$ q5 FBed channel configuration : LFE
" r0 @8 q' p; B& I$ o& f4 E! s
5 t2 d) w$ E4 `" }3 q
& [( n: x% y+ G( y; g
Text #10 u2 e1 e3 o* J1 H' p
ID : 3
& F; v, g. U1 ?. ]) S0 d( U( E4 y0 X  IFormat : UTF-8
. Q) H" m) I1 B4 LCodec ID : S_TEXT/UTF82 l) E, W8 O$ c( X2 c& _8 Y% N0 o8 e
Codec ID/Info : UTF-8 Plain Text+ H% }/ K$ w$ l6 ]8 q6 V
Duration : 1 h 49 min7 s3 T4 W1 C# k- w) i, S. ]
Bit rate : 67 b/s/ {5 T1 y' A, R  w; I6 t; P
Count of elements : 1525
% b* S1 o2 n# R) l7 v3 v) eStream size : 53.7 KiB (0%)7 _9 _% w7 l# Z, O% s
Language : English: O# c' C3 k( I* Y
Default : No1 @4 X3 k- u5 T8 C/ C# V" q) B
Forced : No) b4 h4 o' C) {1 @2 p0 H- [
1 I( _, i. P4 y8 {3 ^; Y+ w+ U
2 }) |3 `9 i, e# J, J- l
Text #2( W3 Z, }- s, ~4 a/ x/ Z
ID : 42 s- ?3 ~% |$ k' _
Format : UTF-83 S0 E. @: _( q/ E2 D( V
Codec ID : S_TEXT/UTF8" r3 }# Y  ?& r1 W
Codec ID/Info : UTF-8 Plain Text
$ O6 u5 x0 |& v1 q6 L. E7 BDuration : 1 h 50 min! N% x/ ?9 m' C0 h8 O4 X
Bit rate : 109 b/s
2 K* [) v: j9 u" DCount of elements : 2185# W9 ]4 _" Z5 w! K
Stream size : 88.4 KiB (0%)
7 o- L& C: w  q9 c. l) S- STitle : SDH
* j4 O1 [* s) k& z9 mLanguage : English
( g8 y3 ~$ w" R: u$ {7 ZDefault : No
+ z4 q# b8 i, DForced : No% T' \4 ^, I- }6 r; B7 H' Y; t
! x* E% T5 k/ z

& ^$ c  `; C3 h- w! \Text #3
7 i' E0 s5 U) x' xID : 50 [1 H4 u8 u5 f2 s3 Q2 k
Format : UTF-8' b* t1 c9 C( e* M# [
Codec ID : S_TEXT/UTF8/ ^/ E6 B3 v7 k+ f, s- b
Codec ID/Info : UTF-8 Plain Text
, C/ _' h' d: B% Y! L- mDuration : 1 h 50 min
* O% P% m9 u7 r6 ?3 j: pBit rate : 79 b/s0 P. j% I0 T( X1 G0 H. [7 p
Count of elements : 2018% L1 Q$ Y. O3 A2 c! E% k
Stream size : 64.6 KiB (0%)0 n3 ^9 F# M. l, b# Z; F. {
Title : Hong Kong
+ X* [* m6 [  U* t6 f5 ^# H& C$ U6 ULanguage : Chinese' E, t9 B3 l' W) @( L
Default : No
0 ]  p' \$ S% p. q8 x) s9 s& h% xForced : No
" @( m# e7 s3 `) b% a0 D
) k: C% z; P4 h- v2 }* [+ o- k

7 g* s/ l) r  b& uText #4- J% `, T- _$ [8 g9 s$ g% z- c$ ]
ID : 6: o' d; U: r: B0 n9 g, T: S6 j
Format : UTF-8
" F! b8 T3 l0 `3 ~Codec ID : S_TEXT/UTF8/ Z0 T3 x  H% I' T" O8 z
Codec ID/Info : UTF-8 Plain Text4 H, ^2 f% {6 j( A0 Q: m' l4 q/ L* w# O
Duration : 1 h 50 min
$ L5 ]" C% x3 D7 m4 {' |' ZBit rate : 81 b/s
  K/ o5 h9 A, d$ E# {Count of elements : 2024" C: H. V& @' G
Stream size : 66.4 KiB (0%)
! R1 C, U1 e9 g9 vTitle : Simplified
/ Q) @; e% z6 E+ e  gLanguage : Chinese
+ q% T6 O3 J5 x  J& [, g& F! wDefault : No
) N# \3 m8 |7 XForced : No

2 g9 N8 S' _$ |- k) L' b5 M: ]" z: D& Q5 Y
蓝光高清网提示您 点击下方附件名称 即可开始下载2 p& p5 L- j! U

4 P3 f( t& k* I

/ U! e2 P6 |8 P3 C: `0 E1 |多版本下载时请注意区分; U9 ~/ G+ E5 b: }
6 }' `( L5 t8 y+ K$ O+ G( f
0 u: {0 I' s, o: `% P, `8 d7 B( K
球鞋奇缘(台)/球鞋灰姑娘4k.Sneakerella.2022.2160p.DSNP.WEB-DL.x265.10bit.HDR.DDP5.1.Atmos-4k电影下载【自带中字】8 b8 A; p' M5 O. k4 W2 g' k2 c6 u

0 v' q) T2 [7 c1 H  c. ^- ?. n
/ {! ^( a5 m( T1 w' \
球鞋灰姑娘4k.Sneakerella.2022.2160p.DSNP.WEB-DL.x265.10bit.HDR.DDP5.1.Atmos【4k HDR 13.35 GB】8 H6 N9 k, [8 L) H: X! d4 B

球鞋灰姑娘4k.Sneakerella.2022.2160p.DSNP.WEB-DL.x265.10bit.HDR.DDP5.1.Atmos-FLUX.torrent ( 17.34 KB )

& r# O6 C0 |1 d' s, a- \5 j) w9 Y
0 q$ Q; H% l: H" A) i1 a
球鞋灰姑娘4k.Sneakerella.2022.2160p.DSNP.WEB-DL.DDP5.1.Atmos.DV.MKV.x265【4k杜比视界 13.41GB】. H8 K+ m/ @5 C8 N

球鞋灰姑娘4k.Sneakerella.2022.2160p.DSNP.WEB-DL.DDP5.1.Atmos.DV.MKV.x265-DVSUX.torrent ( 17.42 KB )


/ E5 [5 q* ?3 L0 X% \3 o+ e  d& X" U) g' X$ A( r
球鞋灰姑娘4k.Sneakerella.2022.2160p.DSNP.WEB-DL.DDP5.1.Atmos.DV.MP4.x265【4k 杜比视界 13.41 GB】3 t% Z7 s! h& u1 t# D

球鞋灰姑娘4k.Sneakerella.2022.2160p.DSNP.WEB-DL.DDP5.1.Atmos.DV.MP4.x265-DVSUX.torrent ( 17.42 KB )


# W  J( o% l: e% L8 g* j
1 s8 P! e5 g4 s+ p( r
加入蓝光高清网VIP会员  无限制下载本站所有资源---点这里

资源下载、资源播放、字幕使用、无法下载等常见问题---点这里
回复

使用道具 举报

全部回复4 显示全部楼层
PCHUN 发表于 5 天前 | 显示全部楼层
Thanks for sharing
回复 支持 反对

使用道具 举报

dongshouba手机认证 发表于 4 天前 | 显示全部楼层
感谢分享
回复

使用道具 举报

asd8250981rzx手机认证 发表于 4 天前 | 显示全部楼层
嗯11231233213
回复 支持 反对

使用道具 举报

ggang1 发表于 3 天前 | 显示全部楼层
谢谢分享,
回复

使用道具 举报

发表回复

您需要登录后才可以回帖 登录 | 立即注册

本版积分规则

联系客服 关注微信 下载APP 返回顶部 返回列表