蓝光高清网

搜索
开启左侧

怪物家族2:人无完人 Monster.Family.2.2021.3D.1080p.BluRay.x264-JustWatch 7.94GB

蓝鸟 发表于 2022-5-26 10:59:02 | 显示全部楼层 |阅读模式
怪物家族2:人无完人 豆瓣评分: 无评分
片长: 103分钟 ( 2021年上映)
类型:喜剧 动画 家庭 
导演:霍尔格·塔佩
主演:杰西卡·布朗·芬德利 / 艾米丽·凯里 / 尼克·弗罗斯特 / 艾米丽·沃森
3 D 格式:sbs 

封装音轨:DTS-HD.MA 5.1 
简  介
( k5 J' m, t) Q
( E& Y" t- r* g2 {+ q# |$ L/ z  为了将芭芭雅嘎和伦菲尔德从怪物猎人米拉斯塔尔的魔掌中解救出来,Wishbone 家族再次变身为吸血鬼、弗兰肯斯坦的怪物、木乃伊和狼人。在他们的三只宠物蝙蝠的帮助和教唆下,我们的怪物家族再次环游世界以拯救他们的朋友,结识新的可怕的熟人,最终意识到“没人”......  w# k$ D9 }  T& w3 F
7 g" M7 M/ q' b, r, I$ s' N! o2 `, z
影片参数
- @% j/ h) T, G0 B) n
Video
! A4 f. @$ e8 Q  j+ CID                                       : 1! f* p4 p. A, k
Format                                   : AVC; ?# F( L3 P& M6 t
Format/Info                              : Advanced Video Codec3 e  l2 J- Z4 J3 B! c
Format profile                           : [email protected]
) u& I, j) T  K! Y* T  @( h% SFormat settings                          : CABAC / 5 Ref Frames6 U, d2 y+ Y: B. X( J8 n: m
Format settings, CABAC                   : Yes
# |1 L7 F( S3 q6 ~7 ?Format settings, Reference frames        : 5 frames6 C% W: K; C+ l6 b6 h
Codec ID                                 : V_MPEG4/ISO/AVC
" }. O. {. K/ v, t3 T6 [Duration                                 : 1 h 43 min0 r' [+ H) K3 Q& g- z
Bit rate                                 : 8 763 kb/s
+ ^% K) Y5 u$ z4 _9 |1 l6 MWidth                                    : 1 920 pixels
) r3 G. _; l. J4 x9 S1 THeight                                   : 804 pixels0 ]+ S  K& k2 Z! l' [
Display aspect ratio                     : 2.40:1; p' X& W: g4 U$ K
Frame rate mode                          : Constant7 I! h/ A0 w( S' f
Frame rate                               : 23.976 FPS0 c( z' k- g4 ]. f$ M- @: }
Color space                              : YUV
! X" d( T( s4 M, L6 V4 ~) SChroma subsampling                       : 4:2:0
! p5 c- b  l- |: ?/ [Bit depth                                : 8 bits
7 Q9 b* Y+ c, r" T# p) Y. O# u( yScan type                                : Progressive
* y- p6 f# Z# |9 j" p, V- W% }Bits/(Pixel*Frame)                       : 0.2371 n0 K4 L2 @' k
Stream size                              : 6.31 GiB (79%)
' l+ W% `* D5 C* v/ q2 c8 UWriting library                          : x264 core 164 r3094 bfc87b7
8 n! z* k- r- M; A+ H5 A, tEncoding settings                        : cabac=1 / ref=5 / deblock=1:-3:-3 / analyse=0x3:0x133 / me=umh / subme=8 / psy=1 / psy_rd=1.00:0.00 / mixed_ref=1 / me_range=16 / chroma_me=1 / trellis=2 / 8x8dct=1 / cqm=0 / deadzone=21,11 / fast_pskip=0 / chroma_qp_offset=-2 / threads=24 / lookahead_threads=4 / sliced_threads=0 / nr=0 / decimate=1 / interlaced=0 / bluray_compat=0 / constrained_intra=0 / bframes=3 / b_pyramid=2 / b_adapt=1 / b_bias=0 / direct=3 / weightb=1 / open_gop=0 / weightp=2 / keyint=250 / keyint_min=23 / scenecut=40 / intra_refresh=0 / rc_lookahead=50 / rc=crf / mbtree=1 / crf=17.0 / qcomp=0.60 / qpmin=0 / qpmax=69 / qpstep=4 / ip_ratio=1.40 / aq=1:1.002 I! ]- }! ?3 Q  o# x
Language                                 : English# G, P0 ~1 u9 c" |) u
Default                                  : Yes3 J/ }* {. f- \1 s, s- [" v) u9 d
Forced                                   : No
& g; L- {7 \. B& h8 L7 K2 O  ?. `' C5 \
, {* t7 F' U6 Q8 R2 B7 ]* d
Audio! q' K& Q2 I+ r: Y" w
ID                                       : 22 W9 c% Z. d' L& m6 F* B
Format                                   : DTS XLL
5 H% x5 G( i. \8 @6 JFormat/Info                              : Digital Theater Systems
& s% i# T9 ^7 w) O0 X" e7 ZCommercial name                          : DTS-HD Master Audio
) j9 x/ c' J, |) W! _Codec ID                                 : A_DTS  N' ~) {! ]3 e8 y' v8 l( G
Duration                                 : 1 h 43 min
5 }# s7 B8 E$ G0 IBit rate mode                            : Variable
4 s+ ?9 R! }$ i( cBit rate                                 : 2 234 kb/s/ Y& L' O) j! t- m& w
Channel(s)                               : 6 channels) _# A, Q" V& v: t+ D9 c
Channel layout                           : C L R Ls Rs LFE% n3 }( C  H: K& n% q+ y
Sampling rate                            : 48.0 kHz
- T' z, ^3 |; m1 v( K7 SFrame rate                               : 93.750 FPS (512 SPF)
2 \0 z( Z/ p, W' ?+ a) xBit depth                                : 16 bits
: G6 a% ~4 |: h( J$ sCompression mode                         : Lossless
0 J, d, B5 ~8 F' u' v* H& U4 {1 IStream size                              : 1.61 GiB (20%)+ L' e- Q! X1 s6 W5 M
Language                                 : English8 ?4 X! Y- p1 P
Default                                  : Yes
  d; L7 C- @; QForced                                   : No
4 k- r5 X) e2 W+ k0 G7 n* U$ o# Y# J! s0 P. g

$ q* ]7 i; I0 J  y; M$ T7 @+ EText #12 L, z( d/ b* a6 e8 ?! x' ?
ID                                       : 3+ m2 x2 k0 O: N  O1 B
Format                                   : PGS, r; {9 }! }) z% m* T0 j+ N2 L" M
Muxing mode                              : zlib( o# L+ ?* k/ t" H9 `
Codec ID                                 : S_HDMV/PGS
2 k- k) y7 q. Y/ _) eCodec ID/Info                            : Picture based subtitle format used on BDs/HD-DVDs
& f: |$ w) c) \7 TDuration                                 : 1 h 41 min
# K4 W+ _( _- M1 F: w) v9 OBit rate                                 : 33.5 kb/s
) k5 s7 k* y: [9 ACount of elements                        : 2726
4 L3 G0 y5 A" zStream size                              : 24.4 MiB (0%)
! A& e7 x8 [% [Language                                 : English
# H* B$ ~) G) S% n! |Default                                  : No
% {+ W, K$ B& @2 r) m1 h" z2 V, oForced                                   : No( a; L7 f( m) g) W, H$ a+ }
( C# [, C; _% Y, T7 y0 @
9 |. A( R& X- J5 a7 a# r$ i  p& S" [0 `
Text #2
( q8 A6 E3 l% B! g( TID                                       : 4
  y" z; ~# \# X, IFormat                                   : PGS
3 r; d  q" H3 y7 w2 S1 }' tMuxing mode                              : zlib4 l7 Y& F1 g' W4 A2 a) P3 o: F% O5 ^3 p
Codec ID                                 : S_HDMV/PGS1 w2 l4 R7 E3 d' A
Codec ID/Info                            : Picture based subtitle format used on BDs/HD-DVDs1 f' R4 X6 @7 R. i5 n
Duration                                 : 1 h 42 min( Z# R+ w. ?( m5 v( F
Bit rate                                 : 35.6 kb/s
3 [, w! z, g9 ~& UCount of elements                        : 2446
, ~9 _, @0 V& ~  `' j+ @: e6 AStream size                              : 26.0 MiB (0%)
! U* b) f1 q, {9 K5 _7 OLanguage                                 : German4 @5 `+ S, P4 p: |
Default                                  : No( K: e+ p! M* d% X$ q
Forced                                   : No
: R) z  l7 ~( y) ?# ~/ W" f/ T# O8 T6 X. c6 U- j/ r

1 ]$ y- l$ h" u0 O) VMenu' a" ?; R4 p& Q& |0 q7 q
00:00:00.000                             : en:Chapter 01
% R' }9 V0 J4 |6 E; |00:08:53.950                             : en:Chapter 02, z7 S7 S7 A" b9 a3 I0 p
00:15:33.141                             : en:Chapter 031 y/ c9 ^$ D+ d' e* ]- w. c
00:26:25.876                             : en:Chapter 04# G. j7 K- D& I7 N8 @
00:34:25.480                             : en:Chapter 05" F' I( ^' \) ^9 b- n
00:41:12.929                             : en:Chapter 06
! |! [6 w$ A: A00:53:16.819                             : en:Chapter 074 \0 q: D/ n& ~) Q' |/ z$ L' H
01:01:05.620                             : en:Chapter 08
* ^3 B9 L# Y" D& c' w4 R01:08:00.410                             : en:Chapter 09# V1 ]( ~9 s9 q! v6 S4 A
01:16:22.244                             : en:Chapter 10; H; ^) P. Y' q4 M" l# Z; F
01:24:36.405                             : en:Chapter 110 S5 E. x. V/ x" d& A: J' X! @
01:34:45.847                             : en:Chapter 12

怪物家族2:人无完人 Monster.Family.2.2021.3D.1080p.BluRay.x264-JustWatch 7.94GB

怪物家族2:人无完人 Monster.Family.2.2021.3D.1080p.BluRay.x264-JustWatch 7.94GB

8 R8 j7 B% U  @( l: g. f8 ]' s5 A& H4 b' u& Y$ S# S& c0 {
蓝光高清网提示您 点击下方附件名称 即可开始下载2 g2 O1 ?, z' v# h2 K
& M7 X; s  i/ B. O6 l
- t$ Y: w* G2 D$ k/ \, U
怪物家族2:人无完人 Monster.Family.2.2021.3D.1080p.BluRay.x264-JustWatch 7.94GB
) i% }' N1 o/ a* E8 {! J! k& V

Monster.Family.2.2021.3D.1080p.BluRay.x264-JustWatch.torrent ( 20.61 KB )


# G, X, N* d' H, ^
, j7 P( M, ]; K- c2 C$ T3 B% r) u! O# L7 D
加入蓝光高清网VIP会员  无限制下载本站所有资源---点这里

资源下载、资源播放、字幕使用、无法下载等常见问题---点这里
回复

使用道具 举报

全部回复0 显示全部楼层

发表回复

您需要登录后才可以回帖 登录 | 立即注册

本版积分规则

联系客服 关注微信 下载APP 返回顶部 返回列表