本站已运行

蓝光高清网

搜索

怪物家族2:人无完人 Monster.Family.2.2021.3D.1080p.BluRay.x264-JustWatch 7.94GB

蓝鸟 发表于 2022-5-26 10:59:02 | 显示全部楼层 |阅读模式
怪物家族2:人无完人 豆瓣评分: 无评分
年代:2021年上映
片长:103分钟
地区:美国
类型:喜剧 动画 家庭 
导演:霍尔格·塔佩
主演:杰西卡·布朗·芬德利 / 艾米丽·凯里 / 尼克·弗罗斯特 / 艾米丽·沃森
3 D 格式:sbs  封装音轨:DTS-HD.MA 5.1 
简  介

  为了将芭芭雅嘎和伦菲尔德从怪物猎人米拉斯塔尔的魔掌中解救出来,Wishbone 家族再次变身为吸血鬼、弗兰肯斯坦的怪物、木乃伊和狼人。在他们的三只宠物蝙蝠的帮助和教唆下,我们的怪物家族再次环游世界以拯救他们的朋友,结识新的可怕的熟人,最终意识到“没人”......

影片参数
Video
ID                                       : 1
Format                                   : AVC
Format/Info                              : Advanced Video Codec
Format profile                           : [email protected]
Format settings                          : CABAC / 5 Ref Frames
Format settings, CABAC                   : Yes
Format settings, Reference frames        : 5 frames
Codec ID                                 : V_MPEG4/ISO/AVC
Duration                                 : 1 h 43 min
Bit rate                                 : 8 763 kb/s
Width                                    : 1 920 pixels
Height                                   : 804 pixels
Display aspect ratio                     : 2.40:1
Frame rate mode                          : Constant
Frame rate                               : 23.976 FPS
Color space                              : YUV
Chroma subsampling                       : 4:2:0
Bit depth                                : 8 bits
Scan type                                : Progressive
Bits/(Pixel*Frame)                       : 0.237
Stream size                              : 6.31 GiB (79%)
Writing library                          : x264 core 164 r3094 bfc87b7
Encoding settings                        : cabac=1 / ref=5 / deblock=1:-3:-3 / analyse=0x3:0x133 / me=umh / subme=8 / psy=1 / psy_rd=1.00:0.00 / mixed_ref=1 / me_range=16 / chroma_me=1 / trellis=2 / 8x8dct=1 / cqm=0 / deadzone=21,11 / fast_pskip=0 / chroma_qp_offset=-2 / threads=24 / lookahead_threads=4 / sliced_threads=0 / nr=0 / decimate=1 / interlaced=0 / bluray_compat=0 / constrained_intra=0 / bframes=3 / b_pyramid=2 / b_adapt=1 / b_bias=0 / direct=3 / weightb=1 / open_gop=0 / weightp=2 / keyint=250 / keyint_min=23 / scenecut=40 / intra_refresh=0 / rc_lookahead=50 / rc=crf / mbtree=1 / crf=17.0 / qcomp=0.60 / qpmin=0 / qpmax=69 / qpstep=4 / ip_ratio=1.40 / aq=1:1.00
Language                                 : English
Default                                  : Yes
Forced                                   : No


Audio
ID                                       : 2
Format                                   : DTS XLL
Format/Info                              : Digital Theater Systems
Commercial name                          : DTS-HD Master Audio
Codec ID                                 : A_DTS
Duration                                 : 1 h 43 min
Bit rate mode                            : Variable
Bit rate                                 : 2 234 kb/s
Channel(s)                               : 6 channels
Channel layout                           : C L R Ls Rs LFE
Sampling rate                            : 48.0 kHz
Frame rate                               : 93.750 FPS (512 SPF)
Bit depth                                : 16 bits
Compression mode                         : Lossless
Stream size                              : 1.61 GiB (20%)
Language                                 : English
Default                                  : Yes
Forced                                   : No


Text #1
ID                                       : 3
Format                                   : PGS
Muxing mode                              : zlib
Codec ID                                 : S_HDMV/PGS
Codec ID/Info                            : Picture based subtitle format used on BDs/HD-DVDs
Duration                                 : 1 h 41 min
Bit rate                                 : 33.5 kb/s
Count of elements                        : 2726
Stream size                              : 24.4 MiB (0%)
Language                                 : English
Default                                  : No
Forced                                   : No


Text #2
ID                                       : 4
Format                                   : PGS
Muxing mode                              : zlib
Codec ID                                 : S_HDMV/PGS
Codec ID/Info                            : Picture based subtitle format used on BDs/HD-DVDs
Duration                                 : 1 h 42 min
Bit rate                                 : 35.6 kb/s
Count of elements                        : 2446
Stream size                              : 26.0 MiB (0%)
Language                                 : German
Default                                  : No
Forced                                   : No


Menu
00:00:00.000                             : en:Chapter 01
00:08:53.950                             : en:Chapter 02
00:15:33.141                             : en:Chapter 03
00:26:25.876                             : en:Chapter 04
00:34:25.480                             : en:Chapter 05
00:41:12.929                             : en:Chapter 06
00:53:16.819                             : en:Chapter 07
01:01:05.620                             : en:Chapter 08
01:08:00.410                             : en:Chapter 09
01:16:22.244                             : en:Chapter 10
01:24:36.405                             : en:Chapter 11
01:34:45.847                             : en:Chapter 12

怪物家族2:人无完人 Monster.Family.2.2021.3D.1080p.BluRay.x264-JustWatch 7.94GB

怪物家族2:人无完人 Monster.Family.2.2021.3D.1080p.BluRay.x264-JustWatch 7.94GB


蓝光高清网提示您 点击下方附件名称 即可开始下载


怪物家族2:人无完人 Monster.Family.2.2021.3D.1080p.BluRay.x264-JustWatch 7.94GB

Monster.Family.2.2021.3D.1080p.BluRay.x264-JustWatch.torrent ( 20.61 KB )




加入蓝光高清网VIP会员  无限制下载本站所有资源---点这里

资源下载、资源播放、字幕使用、无法下载等常见问题---点这里
回复

使用道具 举报

全部回复0 显示全部楼层

发表回复

您需要登录后才可以回帖 登录 | 立即注册

本版积分规则

开通会员 帮助中心 返回顶部 返回列表