本站已运行

蓝光高清网

搜索
开启左侧

卖座大电影 Box.Office.3D.The.Filmest.of.Films.2011.ITALIAN.1080p.BluRay.x264.DTS-HANDJOB 7.48GB

蓝鸟 发表于 2022-5-26 11:01:40 | 显示全部楼层 |阅读模式
卖座大电影 豆瓣评分: 4.0分
片长: 102分钟 ( 2011年上映)
类型:喜剧 
导演:Ezio Greggio
主演:安娜·法尔奇 / 吉娜·劳洛勃丽吉达 / 埃奇奥·格雷乔 / 吉吉·普罗耶蒂 / 乔吉亚·伍尔斯
3 D 格式:sbs 

封装音轨:DTS-HD.MA 5.1 
简  介$ K3 V( Q( [( I1 g' c5 h3 _3 L
, ?0 I0 C  w" |
  《卖座大电影》是由EzioGreggio导演,他的电影通常是票房不俗的低劣喜剧。从意大利媒体的反应来看,这次似乎也不例外,虽然有3D的技术,外加拿梅尔·布鲁克斯(MelBrooks)风格作挡箭牌。在这部恶搞喜剧中,导演埃奇奥·格雷乔讲述了一个无厘头的穿越故事。不过主角却不是在历史中穿越,而是在各种不同类型的电影中穿越。这些电影都有一个共同的特点:都是卖座的大电影。这些被主角们穿越的电影有:《达芬奇密码》、《暮色》、《哈利·波特》、《佐罗》、《速度与激情》、《阿凡达》、《007》、《角斗士》等等。
4 b& t9 h8 }$ ?5 R" q& \$ T
% ^! {+ N( N' f& P影片参数
7 D* f' a. e2 H
Video
( Z/ U: S: W6 r* I4 C$ Z! `0 rID                                       : 1& Y7 D) J9 n  _
Format                                   : AVC# ]) S2 @" ?7 L! s- O0 M
Format/Info                              : Advanced Video Codec
7 t& K3 c: F) d" b" @Format profile                           : [email protected]% {8 E+ l0 H, x
Format settings                          : CABAC / 4 Ref Frames
- o  k5 k: I7 C4 sFormat settings, CABAC                   : Yes
7 b+ \5 |7 [  D+ P9 k8 QFormat settings, Reference frames        : 4 frames
! A' J2 N& B' m4 k& V* n- m$ p7 zCodec ID                                 : V_MPEG4/ISO/AVC
( i6 O1 B( b0 nDuration                                 : 1 h 42 min1 _/ h' x6 Q- G* f# c, Y& r
Bit rate                                 : 8 970 kb/s
' s! C1 S/ n' C. m4 y; gWidth                                    : 1 916 pixels
4 ~3 i. _4 T; Q' RHeight                                   : 1 036 pixels
$ L, G! x6 Q( ?7 {% MDisplay aspect ratio                     : 1.85:1
1 w) [  s7 G- ~5 G+ o3 cFrame rate mode                          : Constant
: w$ l3 K2 Z3 _9 M3 K" ]Frame rate                               : 23.976 (24000/1001/189150) FPS
0 g- d* d9 ~) U: u: y' h. t+ LColor space                              : YUV/ n& s6 i; d- `6 S! M3 ]
Chroma subsampling                       : 4:2:0! X& A1 s( s/ W4 I+ @! E" c6 h
Bit depth                                : 8 bits8 R! f& t: ?! f
Scan type                                : Progressive7 g0 f' a7 C; E& x$ ~
Bits/(Pixel*Frame)                       : 0.188
6 Z0 T$ ]( c; G9 K% b& b2 f! G2 LStream size                              : 6.39 GiB (85%)
# k/ x  l/ m, j  ]" mWriting library                          : x264 core 164 r3065 ae03d92
# T4 J! D  `6 j( l5 ~+ J5 k; tEncoding settings                        : cabac=1 / ref=4 / deblock=1:-3:-3 / analyse=0x3:0x133 / me=umh / subme=10 / psy=1 / psy_rd=1.00:0.00 / mixed_ref=1 / me_range=32 / chroma_me=1 / trellis=2 / 8x8dct=1 / cqm=0 / deadzone=21,11 / fast_pskip=0 / chroma_qp_offset=-2 / threads=32 / lookahead_threads=8 / sliced_threads=0 / nr=0 / decimate=0 / interlaced=0 / bluray_compat=0 / constrained_intra=0 / bframes=16 / b_pyramid=2 / b_adapt=2 / b_bias=0 / direct=3 / weightb=1 / open_gop=0 / weightp=2 / keyint=240 / keyint_min=24 / scenecut=40 / intra_refresh=0 / rc_lookahead=60 / rc=crf / mbtree=0 / crf=20.0 / qcomp=0.60 / qpmin=0 / qpmax=69 / qpstep=4 / vbv_maxrate=62500 / vbv_bufsize=78125 / crf_max=0.0 / nal_hrd=none / filler=0 / ip_ratio=1.40 / pb_ratio=1.30 / aq=2:1.00
# q. ~) ]0 L9 k0 [# R+ ]+ mDefault                                  : Yes
9 K2 |/ D/ Q) I0 w. OForced                                   : No' G9 @7 H, i+ @% B) s
Color range                              : Limited
: W" S1 q, R6 x/ K0 S& ^Color primaries                          : BT.7096 p1 T( m4 f5 M' L' i7 s; @
Transfer characteristics                 : BT.7093 L  Q9 ^9 s& N0 ^2 p! V
Matrix coefficients                      : BT.709. ?- }8 d$ v* \3 F/ `% V" |
Audio
1 T9 P+ U9 P2 u3 m  sID                                       : 2+ n: `3 r9 W% R# f; R2 u
Format                                   : DTS$ x+ e8 d/ ^, w! V
Format/Info                              : Digital Theater Systems, r5 n$ Y* {* x' {5 k
Codec ID                                 : A_DTS8 X  c3 p; l3 I3 ?! N1 [
Duration                                 : 1 h 42 min
' O, \) z' J/ `  \; M3 |Bit rate mode                            : Constant6 s% O7 F. J$ M: n- w! A2 W
Bit rate                                 : 1 509 kb/s
+ ~" r6 @2 k! A$ Z3 pChannel(s)                               : 6 channels* \+ I3 K0 L' r3 e; B
Channel layout                           : C L R Ls Rs LFE/ r* G! Y0 @: X5 b( Q# G
Sampling rate                            : 48.0 kHz
: ~9 S" i+ t+ [! uFrame rate                               : 93.750 FPS (512 SPF)% N  d4 q  H/ E- l! k  m
Bit depth                                : 24 bits, V9 J' C+ @: |% _' R
Compression mode                         : Lossy6 A' Z2 L3 \7 |. Q9 o6 F
Stream size                              : 1.08 GiB (14%)* F7 d& a$ Y' f0 P1 j
Language                                 : Italian
5 Z6 F& W1 Z$ K5 {9 bDefault                                  : Yes% g) `+ P1 d4 w/ \' f' H  _3 ~
Forced                                   : No
' w' s5 f0 J% N! [- P- N; m9 SText #1
" y5 t7 }' t: i0 s8 |: tID                                       : 3
9 D; t! d( p+ w% N# D3 \Format                                   : UTF-8. c2 `3 @6 Q; `  k
Codec ID                                 : S_TEXT/UTF84 e! N( H9 E* [7 B4 _2 I: t, i1 q0 N
Codec ID/Info                            : UTF-8 Plain Text1 w! D5 C) J) T; a( T$ Y
Duration                                 : 1 h 37 min: D. p5 i# D! k4 y
Bit rate                                 : 68 b/s9 G$ y* R! m2 o% X( ]. X6 A- u3 Z
Count of elements                        : 1266
& r# O" @: [1 O- }0 p' jStream size                              : 48.8 KiB (0%)4 H- d9 k* p) k7 F
Language                                 : English
7 J* r" Q  y# wDefault                                  : Yes
2 {4 A/ q1 S  J' t9 h& {  FForced                                   : No
8 n7 P7 }" R* ^& XText #2
' D+ s/ ^; C  m! d% T* p$ v! wID                                       : 40 |  i$ R* r) ~. w& J! E
Format                                   : PGS% O# T* b; b6 t2 m6 H
Muxing mode                              : zlib
+ k3 u6 l' Z" _4 C  CCodec ID                                 : S_HDMV/PGS" u- D1 }9 i0 G% S! ^
Codec ID/Info                            : Picture based subtitle format used on BDs/HD-DVDs
1 j! v4 \4 ~  y  [0 ^: J% r8 T( _Duration                                 : 1 h 35 min
# S5 J6 b" E) u# nBit rate                                 : 47.5 kb/s
& N6 _/ {5 M& C* XCount of elements                        : 2708
7 t! K; D- A, F7 ~" }8 N0 p7 w6 bStream size                              : 32.6 MiB (0%)# W1 `8 B" c4 i6 g
Language                                 : Italian
' Z* q3 D3 S- k9 u$ V( w0 IDefault                                  : No
5 h) n3 ^. c+ y& H5 k& iForced                                   : No
; v7 D8 J5 |9 J+ k' s- w# Z% ]Menu
5 J! M3 k7 y$ L4 B2 Q3 R00:00:00.000                             : :Chapter 19 ?5 ^" `% l: U# |( @4 j; T7 ]
00:03:17.030                             : :Chapter 2
2 o3 S4 M% e. {8 @; T4 p. Q00:20:21.178                             : :Chapter 3- T$ f0 H; w" w
00:23:10.681                             : :Chapter 4' Q& U7 K8 D4 ^/ i/ |" S/ C# J
00:28:24.620                             : :Chapter 5" K. S& Y! V( U2 \7 R' S
00:47:35.895                             : :Chapter 6/ N( o8 k; q1 |$ |  t- Z' m
00:49:53.991                             : :Chapter 7+ n6 m6 |% V* g4 Z. Z6 [! t: p
00:54:26.096                             : :Chapter 87 X$ s; \5 L$ c  j! K
00:56:54.745                             : :Chapter 9
8 a2 {; @0 A) o4 p$ L01:01:57.255                             : :Chapter 10. S8 W: q/ t1 Z2 M
01:07:09.609                             : :Chapter 118 A% w1 D; N6 p1 {; K9 ]% a$ y, `
01:12:21.754                             : :Chapter 12
3 n8 M2 k; c7 g$ e
蓝光高清网提示您 点击下方附件名称 即可开始下载
  M9 n" {3 z& n* ]. ^$ Y
1 [9 m2 {/ F; G4 B卖座大电影 Box.Office.3D.The.Filmest.of.Films.2011.ITALIAN.1080p.BluRay.x264.DTS-HANDJOB 7.48GB8 L/ g. A1 R6 }0 a! A

Box.Office.3D.The.Filmest.of.Films.2011.ITALIAN.1080p.BluRay.x264.DTS-HANDJOB.torrent ( 19.35 KB )

# X8 l6 L4 z* ~5 @' |0 [* q
9 R& ]3 V. n2 [" j+ U
5 X9 g  `+ a0 Q9 p/ I) r8 G- C
加入蓝光高清网VIP会员  无限制下载本站所有资源---点这里

资源下载、资源播放、字幕使用、无法下载等常见问题---点这里
回复

使用道具 举报

全部回复3 显示全部楼层
lietian 发表于 2022-6-7 10:39:01 | 显示全部楼层
看看。。。。。。。。。。。。。。。。。。
回复

使用道具 举报

bandy11111手机认证 发表于 2022-9-1 04:03:48 | 显示全部楼层
怎样赚金币怎样赚金币怎样赚金币怎样赚金币怎样赚金币怎样赚金币怎样赚金币
回复 支持 反对

使用道具 举报

tifeng421手机认证 发表于 2022-10-20 23:59:39 来自手机 | 显示全部楼层
好好好
回复

使用道具 举报

发表回复

您需要登录后才可以回帖 登录 | 立即注册

本版积分规则

开通会员 帮助中心 返回顶部 返回列表