蓝光高清网

搜索
开启左侧

卖座大电影 Box.Office.3D.The.Filmest.of.Films.2011.ITALIAN.1080p.BluRay.x264.DTS-HANDJOB 7.48GB

蓝鸟 发表于 2022-5-26 11:01:40 | 显示全部楼层 |阅读模式
卖座大电影 豆瓣评分: 4.0分
片长: 102分钟 ( 2011年上映)
类型:喜剧 
导演:Ezio Greggio
主演:安娜·法尔奇 / 吉娜·劳洛勃丽吉达 / 埃奇奥·格雷乔 / 吉吉·普罗耶蒂 / 乔吉亚·伍尔斯
3 D 格式:sbs 

封装音轨:DTS-HD.MA 5.1 
简  介
+ |7 f8 r9 v$ h9 w' p& K2 E! n5 v3 S8 I2 Y  R# F+ w! h
  《卖座大电影》是由EzioGreggio导演,他的电影通常是票房不俗的低劣喜剧。从意大利媒体的反应来看,这次似乎也不例外,虽然有3D的技术,外加拿梅尔·布鲁克斯(MelBrooks)风格作挡箭牌。在这部恶搞喜剧中,导演埃奇奥·格雷乔讲述了一个无厘头的穿越故事。不过主角却不是在历史中穿越,而是在各种不同类型的电影中穿越。这些电影都有一个共同的特点:都是卖座的大电影。这些被主角们穿越的电影有:《达芬奇密码》、《暮色》、《哈利·波特》、《佐罗》、《速度与激情》、《阿凡达》、《007》、《角斗士》等等。
  ]/ [  T7 T0 ]1 G4 ]1 M4 q/ P  b9 V% Q5 Y$ V& D% Q  l
影片参数9 f4 C( ?, h4 i0 H' e8 r
Video
  S" w. p0 y& \  L" [% g3 AID                                       : 1" X) n5 v  a; D7 q( w( G
Format                                   : AVC9 T8 W+ v% O# }6 A, [
Format/Info                              : Advanced Video Codec
9 _' b; Z8 M2 ^. I" L. j3 uFormat profile                           : [email protected], A; b$ T) |/ ?
Format settings                          : CABAC / 4 Ref Frames- T9 V2 ^: l4 |- N
Format settings, CABAC                   : Yes
% @( @, |! @3 r* S4 U7 V" dFormat settings, Reference frames        : 4 frames
! [+ k2 J% }+ U0 f0 |5 H1 Z) F( [7 R! HCodec ID                                 : V_MPEG4/ISO/AVC; q' {7 ^/ y. _& P' D6 s
Duration                                 : 1 h 42 min8 v; P8 e# U* a+ o# B( x! F- Z% h1 P
Bit rate                                 : 8 970 kb/s
. Y8 t) i# Q# H3 O# VWidth                                    : 1 916 pixels
7 R& d3 j8 v- z6 }& L( k+ ^9 a: VHeight                                   : 1 036 pixels  i3 l+ p5 X; `4 C- ?( i) b
Display aspect ratio                     : 1.85:1
( r5 m$ _4 p" Z+ UFrame rate mode                          : Constant
  z6 [  h! K9 T8 ]. h+ w- nFrame rate                               : 23.976 (24000/1001/189150) FPS
" G+ Z& V  K0 B  J( X: p  U3 ~Color space                              : YUV
  F6 }2 v5 l, p; }6 s) ^Chroma subsampling                       : 4:2:0+ k8 M1 E0 E  Q
Bit depth                                : 8 bits
: @* S4 E: N# d* L1 XScan type                                : Progressive
1 @( l5 d" n0 Z& y+ eBits/(Pixel*Frame)                       : 0.188$ J0 ?! W' s5 K& ~
Stream size                              : 6.39 GiB (85%)
5 D" n1 S4 r. y3 e& b6 ?. f0 FWriting library                          : x264 core 164 r3065 ae03d92" Q- u7 N$ Y5 B7 g; G# f
Encoding settings                        : cabac=1 / ref=4 / deblock=1:-3:-3 / analyse=0x3:0x133 / me=umh / subme=10 / psy=1 / psy_rd=1.00:0.00 / mixed_ref=1 / me_range=32 / chroma_me=1 / trellis=2 / 8x8dct=1 / cqm=0 / deadzone=21,11 / fast_pskip=0 / chroma_qp_offset=-2 / threads=32 / lookahead_threads=8 / sliced_threads=0 / nr=0 / decimate=0 / interlaced=0 / bluray_compat=0 / constrained_intra=0 / bframes=16 / b_pyramid=2 / b_adapt=2 / b_bias=0 / direct=3 / weightb=1 / open_gop=0 / weightp=2 / keyint=240 / keyint_min=24 / scenecut=40 / intra_refresh=0 / rc_lookahead=60 / rc=crf / mbtree=0 / crf=20.0 / qcomp=0.60 / qpmin=0 / qpmax=69 / qpstep=4 / vbv_maxrate=62500 / vbv_bufsize=78125 / crf_max=0.0 / nal_hrd=none / filler=0 / ip_ratio=1.40 / pb_ratio=1.30 / aq=2:1.00
: b- p$ ]0 Q1 ^  C0 \Default                                  : Yes
$ o7 _: S" L4 F- n  Y9 ~) i2 z$ |Forced                                   : No
$ }& J7 u# F- i+ s- s2 FColor range                              : Limited
- O% n9 B1 L) i  z, h. U4 M0 i' VColor primaries                          : BT.709  p& f' f2 D; J0 r8 ~9 ]- s6 l
Transfer characteristics                 : BT.709
- O& U  s% S6 T) w( _, b& hMatrix coefficients                      : BT.709; D; \4 m4 y/ u. B, E
Audio" i- t9 ^0 _5 w1 @; ^( @; {
ID                                       : 2, o: C1 V* ^5 P: x2 C' ]5 q* h
Format                                   : DTS
2 _4 {4 |5 o9 XFormat/Info                              : Digital Theater Systems/ d( e3 F7 s0 A1 |/ D
Codec ID                                 : A_DTS9 _/ @9 F4 t- p7 g
Duration                                 : 1 h 42 min
0 N8 J5 S: c& ~3 {: wBit rate mode                            : Constant
& ?: u- u/ G! C. h+ h& TBit rate                                 : 1 509 kb/s
& r3 M9 L2 j+ L/ E% lChannel(s)                               : 6 channels: E- y: o* i4 @, Y0 u9 w
Channel layout                           : C L R Ls Rs LFE( P9 z! s3 `) U
Sampling rate                            : 48.0 kHz
# @8 b8 |5 Z6 s2 |0 Z/ M6 O( f$ F, i# t% lFrame rate                               : 93.750 FPS (512 SPF)* M; P' A5 c" Q
Bit depth                                : 24 bits
. y* ~3 ~  E# s' ?  P: ^Compression mode                         : Lossy
7 R" ^/ |7 b$ Z, [' `' YStream size                              : 1.08 GiB (14%)/ i- O% Z8 g, C8 f6 U
Language                                 : Italian
0 _9 h4 z+ `- `' q6 s; m/ yDefault                                  : Yes0 s! A; N0 v3 b) P
Forced                                   : No
/ _( {( J3 D0 \6 o" RText #1+ R/ _. p5 U4 l* C; |9 J
ID                                       : 3% F) N8 H! \3 W; Q9 }
Format                                   : UTF-8
9 s' ^" @( h1 PCodec ID                                 : S_TEXT/UTF8: S& r- E  a6 B0 X+ x
Codec ID/Info                            : UTF-8 Plain Text5 l1 V) b! G  q# y, y, U* T  j- ~
Duration                                 : 1 h 37 min
# B# t2 z1 W. b4 N1 f5 P2 G2 B5 cBit rate                                 : 68 b/s: N) p" C& d& H; V8 W
Count of elements                        : 1266
3 P6 \% |' |4 [" k9 v2 z# B, SStream size                              : 48.8 KiB (0%)6 `4 A2 ^: h5 l/ P
Language                                 : English
4 E# E7 r3 k5 ]) i# b- M1 n! @Default                                  : Yes
9 }8 l3 g- l, ]$ _1 m2 m, yForced                                   : No
( Q; `; u: A: t; tText #2) q- Y8 g, F' q/ B
ID                                       : 4
( y; X& R0 @9 ]* x6 R; U7 Y' CFormat                                   : PGS3 i$ h4 B! R& l1 L6 ]6 }
Muxing mode                              : zlib
. D# b, b. I, P5 J3 o: iCodec ID                                 : S_HDMV/PGS
# v% m" U7 {- Y. o8 k9 ?6 [Codec ID/Info                            : Picture based subtitle format used on BDs/HD-DVDs- C4 O, m1 ]5 x+ w3 a* G" F
Duration                                 : 1 h 35 min4 M% K) o" R9 h  c
Bit rate                                 : 47.5 kb/s
* I% C0 T: ]; {  RCount of elements                        : 2708
% y/ B! u6 C" M/ v6 M4 f% f# x0 tStream size                              : 32.6 MiB (0%)
( k: W/ @1 z& L9 X$ x! b' JLanguage                                 : Italian5 o( t3 R* D$ J
Default                                  : No
6 E5 D1 B. W5 A2 [9 G; ~& T( xForced                                   : No
: A: W$ {/ O( p0 }Menu
' i4 H; d# J$ Y' ^$ i* p" J00:00:00.000                             : :Chapter 1
( t, T/ x6 l- Y/ N) @) T00:03:17.030                             : :Chapter 2
- M, N  S( r. Y/ \00:20:21.178                             : :Chapter 3
3 V% c; R8 Y) P/ f00:23:10.681                             : :Chapter 4! u- o/ L, L- f8 t6 w( z8 @
00:28:24.620                             : :Chapter 5
& b% j& X3 A! f* M; p00:47:35.895                             : :Chapter 6
2 W2 i* |1 K5 t: }( F) T, I00:49:53.991                             : :Chapter 7  d# I8 }5 _+ j# U1 W
00:54:26.096                             : :Chapter 8
2 O( X; G- I9 `00:56:54.745                             : :Chapter 9! M! A3 i: X. Y) T$ m* I* D
01:01:57.255                             : :Chapter 104 W5 z" d! l, p* F& |4 _" y+ B
01:07:09.609                             : :Chapter 111 I* h# ]" T) ~- @* ?
01:12:21.754                             : :Chapter 12
7 `, q3 @, p/ a
蓝光高清网提示您 点击下方附件名称 即可开始下载
* ^! C! {; ]% @
3 s6 ?3 _% H; @  G; U% l/ G卖座大电影 Box.Office.3D.The.Filmest.of.Films.2011.ITALIAN.1080p.BluRay.x264.DTS-HANDJOB 7.48GB
+ }, M/ Q: @% g

Box.Office.3D.The.Filmest.of.Films.2011.ITALIAN.1080p.BluRay.x264.DTS-HANDJOB.torrent ( 19.35 KB )

- L& r. @, E! t- m! j9 A! [4 K  q

2 ^  [. u8 `, c8 l/ I: ~4 q& L3 Q4 @: t; V: v+ f; x
加入蓝光高清网VIP会员  无限制下载本站所有资源---点这里

资源下载、资源播放、字幕使用、无法下载等常见问题---点这里
回复

使用道具 举报

全部回复1 显示全部楼层
lietian 发表于 2022-6-7 10:39:01 | 显示全部楼层
看看。。。。。。。。。。。。。。。。。。
回复

使用道具 举报

发表回复

您需要登录后才可以回帖 登录 | 立即注册

本版积分规则

联系客服 关注微信 下载APP 返回顶部 返回列表