蓝光高清网

搜索
开启左侧

[剧情] 英雄本色[国语音轨/中英字幕].A.Better.Tomorrow.1986.BluRay.1080p.x265.10bit.2Audio-MiniHD 6.78GB

蓝鸟 发表于 2022-5-28 13:47:53 | 显示全部楼层 |阅读模式

英雄本色[国语音轨/中英字幕].A.Better.Tomorrow.1986.BluRay.1080p.x265.10bit.2Audio-MiniHD 6.78GB ...

英雄本色[国语音轨/中英字幕].A.Better.Tomorrow.1986.BluRay.1080p.x265.10bit.2Audio-MiniHD 6.78GB ...


译  名 英雄本色 / A Better Tomorrow / Gangland Boss
年  代 1986
产  地 中国香港
类  别 剧情 / 动作 / 犯罪
语  言 粤语 / 汉语普通话 / 英语
上映日期 2017-11-17(中国大陆) / 1986-08-02(中国香港)
豆瓣评分 8.6/10 (482057人评价)
片  长 95分钟
导  演 吴宇森 John Woo
编  剧 陈庆嘉 Hing-Ka Chan
       吴宇森 John Woo
       梁淑华 Suk-Wah Leung
演  员 周润发 Yun-Fat Chow
       狄龙 Lung Ti
       张国荣 Leslie Cheung
       朱宝意 Emily Chu
       李子雄 Waise Lee
       田丰 Feng Tien
       吴宇森 John Woo
       曾江 Kenneth Tsang
       成奎安 Fui-On Shing
       徐克 Hark Tsui
       陈志辉 Chi Fai Chan
       顾嘉辉 Joseph Koo
       良鸣 Ming Leung
       冯雪瑞 Xuerui Feng
       杜伟和 Wei Ho Tu
       林富伟 Fu-wai Lam
       马汉元 Han-Yuan Ma
       格莱格·斯奈哥夫 Gregory Snegoff
       廖静妮 Jingni Liao
       张济平 Jiping Zhang
       杨瑞麟 Joseph Yeung
       麦伟章 Wai Cheung Mak
       石燕子 Sek Yin-Tsi
       金兴贤 Hing-Yin Kam
       王侠 Hsieh Wang
       梁柏坚 Patrick Leung
       张国梁 Kwok Leung Cheung
       洪新南 Hsin Nan Hung
       曾醒光 Seng-Kwong Chang
       黄炜溏 Wai-tong Wong
       吴宇森 John Woo
       周国忠 Tony Chow Kwok-Chung
       徐克 Hark Tsui
       顾嘉辉 Joseph Koo
       黄永恒 Wing-Hung Wong
       金马 Ma Kam
       叶锦添 Timmy Yip
       雷志良 Chi Leung Lui
       余家安 Bruce Yu
       梁柏坚 Patrick Leung
       董玮 Wai Tung
       柯受良 Sau Leung ''Blacky'' Ko
简  介
  香港某个国际伪钞集团重要分子宋子豪(狄龙 饰)和Mark(周润发 饰)情同手足,某次宋子豪带手下谭成(李子雄 饰)去台北交易时被其出卖受枪伤被捕入狱,为替好兄弟报仇,Mark孤身赴台,结果被人打成瘸子,江湖地位自此一落千丈,而宋子豪的父亲也在不久丧命。 一向视宋子豪为偶像的宋子杰(张国荣 饰)得知哥哥的真实身份后,对黑社会及他恨之入骨,立誓利用警察身份将黑帮势力斩草除根,宋子豪出狱后不顾苦等他想重创辉煌的Mark的劝阻,决心弃暗投明,无奈得不到宋子杰的谅解。而此时已成帮会老大的谭成欲找宋子豪再合作,遭拒绝后放言会害宋子杰,被逼走投无路,宋子豪决定再与Mark连手共抗强敌。
获奖情况 (共20项)
  第23届台北金马影展 (1986)
  金马奖 最佳剧情片(提名)
  金马奖 最佳导演
   └──吴宇森
  金马奖 最佳男主角
   └──狄龙
  金马奖 最佳男主角(提名)
   └──周润发
  金马奖 最佳男配角(提名)
   └──李子雄
  金马奖 最佳摄影
   └──黄永恒
  金马奖 最佳原创配乐(提名)
   └──顾嘉辉
  金马奖 最佳剪辑(提名)
   └──金马
  金马奖 最佳音效
  第6届香港电影金像奖 (1987)
  最佳电影
  最佳导演(提名)
   └──吴宇森
  最佳编剧(提名)
   └──吴宇森
  最佳男主角
   └──周润发
  最佳男主角(提名)
   └──狄龙
  最佳男配角(提名)
   └──李子雄
  最佳新演员(提名)
   └──李子雄
  最佳摄影(提名)
   └──黄永恒
  最佳剪接(提名)
   └──金马
  最佳美术指导(提名)
   └──雷志良
  最佳原创电影音乐(提名)
   └──顾嘉辉


影片参数
  1. ##### MediaInfo ######
  2. General
  3. Unique ID                                : 206630725462850661119326393041671767314 (0x9B73A152295D4D83947BDEF71E9D4512)
  4. Complete name                            : A.Better.Tomorrow.1986.BluRay.1080p.x265.10bit.2Audio-MiniHD.mkv
  5. Format                                   : Matroska
  6. Format version                           : Version 4
  7. File size                                : 6.78 GiB
  8. Duration                                 : 1 h 35 min
  9. Overall bit rate                         : 10.1 Mb/s
  10. Encoded date                             : UTC 2016-07-13 09:08:11
  11. Writing application                      : mkvmerge v9.1.0 (''Little Earthquakes'') 32bit
  12. Writing library                          : libebml v1.3.3 + libmatroska v1.4.4
  13. Video
  14. ID                                       : 1
  15. Format                                   : HEVC
  16. Format/Info                              : High Efficiency Video Coding
  17. Format profile                           : Main [email protected]@Main
  18. Codec ID                                 : V_MPEGH/ISO/HEVC
  19. Duration                                 : 1 h 35 min
  20. Bit rate                                 : 8 650 kb/s
  21. Width                                    : 1 920 pixels
  22. Height                                   : 1 036 pixels
  23. Display aspect ratio                     : 1.85:1
  24. Frame rate mode                          : Constant
  25. Frame rate                               : 24.000 FPS
  26. Color space                              : YUV
  27. Chroma subsampling                       : 4:2:0
  28. Bit depth                                : 10 bits
  29. Bits/(Pixel*Frame)                       : 0.181
  30. Stream size                              : 5.79 GiB (85%)
  31. Writing library                          : x265 1.9+229-a932b4366235:[Windows][GCC 5.3.1][64 bit] 10bit
  32. Encoding settings                        : wpp / ctu=32 / min-cu-size=8 / max-tu-size=16 / tu-intra-depth=2 / tu-inter-depth=2 / me=3 / subme=5 / merange=25 / no-rect / no-amp / max-merge=3 / temporal-mvp / no-early-skip / rskip / rdpenalty=1 / no-tskip / no-tskip-fast / no-strong-intra-smoothing / no-lossless / no-cu-lossless / no-constrained-intra / no-fast-intra / no-open-gop / no-temporal-layers / interlace=0 / keyint=360 / min-keyint=1 / NTM4NzU=uuDQuD2mJt9fsCf / scenecut=40 / rc-lookahead=60 / lookahead-slices=4 / bframes=8 / bframe-bias=0 / b-adapt=2 / ref=5 / limit-refs=3 / limit-modes / weightp / weightb / aq-mode=1 / qg-size=16 / aq-strength=1.00 / cbqpoffs=0 / crqpoffs=0 / rd=4 / psy-rd=0.30 / rdoq-level=1 / psy-rdoq=5.00 / no-rd-refine / signhide / deblock=-1:-1 / no-sao / no-sao-non-deblock / b-pyramid / no-cutree / no-intra-refresh / rc=crf / crf=20.0 / qcomp=0.70 / qpmin=0 / qpmax=51 / qpstep=4 / ipratio=1.40 / pbratio=1.30
  33. Default                                  : Yes
  34. Forced                                   : No
  35. Color range                              : Limited
  36. Color primaries                          : BT.709
  37. Audio #1
  38. ID                                       : 2
  39. Format                                   : AC-3
  40. Format/Info                              : Audio Coding 3
  41. Commercial name                          : Dolby Digital
  42. Codec ID                                 : A_AC3
  43. Duration                                 : 1 h 35 min
  44. Bit rate mode                            : Constant
  45. Bit rate                                 : 640 kb/s
  46. Channel(s)                               : 6 channels
  47. Channel layout                           : L R C LFE Ls Rs
  48. Sampling rate                            : 48.0 kHz
  49. Frame rate                               : 31.250 FPS (1536 SPF)
  50. Compression mode                         : Lossy
  51. Stream size                              : 439 MiB (6%)
  52. Language                                 : Chinese
  53. Service kind                             : Complete Main
  54. Default                                  : Yes
  55. Forced                                   : No
  56. Audio #2
  57. ID                                       : 3
  58. Format                                   : AC-3
  59. Format/Info                              : Audio Coding 3
  60. Commercial name                          : Dolby Digital
  61. Codec ID                                 : A_AC3
  62. Duration                                 : 1 h 35 min
  63. Bit rate mode                            : Constant
  64. Bit rate                                 : 640 kb/s
  65. Channel(s)                               : 6 channels
  66. Channel layout                           : L R C LFE Ls Rs
  67. Sampling rate                            : 48.0 kHz
  68. Frame rate                               : 31.250 FPS (1536 SPF)
  69. Compression mode                         : Lossy
  70. Stream size                              : 439 MiB (6%)
  71. Language                                 : Chinese
  72. Service kind                             : Complete Main
  73. Default                                  : No
  74. Forced                                   : No
  75. Text #1
  76. ID                                       : 4
  77. Format                                   : PGS
  78. Muxing mode                              : zlib
  79. Codec ID                                 : S_HDMV/PGS
  80. Codec ID/Info                            : Picture based subtitle format used on BDs/HD-DVDs
  81. Language                                 : Chinese
  82. Default                                  : Yes
  83. Forced                                   : No
  84. Text #2
  85. ID                                       : 5
  86. Format                                   : PGS
  87. Muxing mode                              : zlib
  88. Codec ID                                 : S_HDMV/PGS
  89. Codec ID/Info                            : Picture based subtitle format used on BDs/HD-DVDs
  90. Language                                 : Chinese
  91. Default                                  : No
  92. Forced                                   : No
  93. Text #3
  94. ID                                       : 6
  95. Format                                   : PGS
  96. Muxing mode                              : zlib
  97. Codec ID                                 : S_HDMV/PGS
  98. Codec ID/Info                            : Picture based subtitle format used on BDs/HD-DVDs
  99. Language                                 : English
  100. Default                                  : No
  101. Forced                                   : No
  102. Menu
  103. 00:00:00.000                             : en:Chapter 01
  104. 00:04:45.333                             : en:Chapter 02
  105. 00:08:25.875                             : en:Chapter 03
  106. 00:12:21.583                             : en:Chapter 04
  107. 00:16:40.791                             : en:Chapter 05
  108. 00:19:09.208                             : en:Chapter 06
  109. 00:25:41.291                             : en:Chapter 07
  110. 00:30:08.416                             : en:Chapter 08
  111. 00:35:22.583                             : en:Chapter 09
  112. 00:38:35.958                             : en:Chapter 10
  113. 00:44:57.333                             : en:Chapter 11
  114. 00:47:59.791                             : en:Chapter 12
  115. 00:52:04.583                             : en:Chapter 13
  116. 00:56:40.958                             : en:Chapter 14
  117. 01:01:16.666                             : en:Chapter 15
  118. 01:04:45.541                             : en:Chapter 16
  119. 01:10:41.416                             : en:Chapter 17
  120. 01:15:25.208                             : en:Chapter 18
  121. 01:19:20.458                             : en:Chapter 19
  122. 01:25:47.291                             : en:Chapter 20
复制代码


英雄本色[国语音轨/中英字幕].A.Better.Tomorrow.1986.BluRay.1080p.x265.10bit.2Audio-MiniHD 6.78GB ...

英雄本色[国语音轨/中英字幕].A.Better.Tomorrow.1986.BluRay.1080p.x265.10bit.2Audio-MiniHD 6.78GB ...

英雄本色[国语音轨/中英字幕].A.Better.Tomorrow.1986.BluRay.1080p.x265.10bit.2Audio-MiniHD 6.78GB ...

英雄本色[国语音轨/中英字幕].A.Better.Tomorrow.1986.BluRay.1080p.x265.10bit.2Audio-MiniHD 6.78GB ...



蓝光高清网提示您 点击下方附件即可下载

英雄本色[国语音轨/中英字幕].A.Better.Tomorrow.1986.BluRay.1080p.x265.10bit.2Audio-MiniHD 6.78GB

英雄本色[国语音轨 中英字幕].A.Better.Tomorrow.1986.BluRay.1080p.x265.10bit.2Audi.torrent ( 18 KB )

加入蓝光高清网VIP会员  无限制下载本站所有资源---点这里

资源下载、资源播放、字幕使用、无法下载等常见问题---点这里
回复

使用道具 举报

全部回复0 显示全部楼层

发表回复

您需要登录后才可以回帖 登录 | 立即注册

本版积分规则

联系客服 关注微信 下载APP 返回顶部 返回列表