本站已运行

蓝光高清网

搜索
开启左侧

[喜剧] 坏蛋联盟[简繁英字幕].The.Bad.Guys.2022.BluRay.1080p.TrueHD.7.1.x264-CTRLHD 13.42GB

蓝鸟 发表于 2022-6-11 22:19:06 | 显示全部楼层 |阅读模式

坏蛋联盟[简繁英字幕].The.Bad.Guys.2022.BluRay.1080p.TrueHD.7.1.x264-CTRLHD 13.42GB

坏蛋联盟[简繁英字幕].The.Bad.Guys.2022.BluRay.1080p.TrueHD.7.1.x264-CTRLHD 13.42GB


译  名 坏蛋联盟 / 大坏蛋 / 坏家伙 / Bad Guys
片  名 The Bad Guys
年  代 2022
产  地 美国
类  别 喜剧 / 动画 / 冒险
语  言 英语
上映日期 2022-04-29(中国大陆) / 2022-03-17(阿根廷) / 2022-04-22(美国)
豆瓣评分 7.3/10 (73811人评价)
片  长 100分钟
导  演 彼埃尔·佩里菲尔 Pierre Perifel
编  剧 艾伦·布拉培 Aaron Blabey
       伊坦·柯亨 Etan Cohen
       尤尼·布伦纳 Yoni Brenner
       希拉里·温斯顿 Hilary Winston
演  员 山姆·洛克威尔 Sam Rockwell
       马克·马龙 Marc Maron
       奥卡菲娜 Awkwafina
       克雷格·罗宾森 Craig Robinson
       安东尼·拉莫斯 Anthony Ramos
       理查德·艾欧阿德 Richard Ayoade
       莎姬·贝兹 Zazie Beetz
       艾利克斯·布诺斯町 Alex Borstein
       莉莉·辛格 Lilly Singh
       芭芭拉·古德森 Barbara Goodson
       迪娜·莫罗 Dina Morrone  
       迈克尔·高德尔 Michael Godere
       凯莉·库尼 Kelly Cooney
       沃尔特·道恩 Walt Dohrn
       戴维·P·史密斯 David P. Smith
简  介
  故事的主角是五个无恶不作的坏蛋——风度翩翩的扒手“大坏狼”、见多识广的保险箱窃贼“贪心蛇”、冷静沉稳的伪装大师“美肚鲨”、暴躁易怒的打手“食人鱼”、伶牙俐齿的黑客专家“骇客蛛”闪亮登场,他们是最臭名昭著的“坏蛋联盟”。他们平时威风八面,四处作案,令人闻风丧胆。直到某一天,他们突然想成为模范公民,然而转型路途甚是艰难,且意外层出不穷,令人啼笑皆非。


影片参数
  1. ##### MediaInfo ######
  2. General
  3. Unique ID                                : 268511641898058484842218664570589615527 (0xCA01760E3DC73A64A79187FEB65D15A7)
  4. Complete name                            : The.Bad.Guys.2022.BluRay.1080p.TrueHD.7.1.x264-CTRLHD.mkv
  5. Format                                   : Matroska
  6. Format version                           : Version 4
  7. File size                                : 13.4 GiB
  8. Duration                                 : 1 h 40 min
  9. Overall bit rate mode                    : Variable
  10. Overall bit rate                         : 19.2 Mb/s
  11. Encoded date                             : UTC 2022-05-24 21:17:35
  12. Writing application                      : mkvmerge v66.0.0 (''Josie'') 64-bit
  13. Writing library                          : libebml v1.4.2 + libmatroska v1.6.4
  14. Video
  15. ID                                       : 1
  16. Format                                   : AVC
  17. Format/Info                              : Advanced Video Codec
  18. Format profile                           : [email protected]
  19. Format settings                          : CABAC / 5 Ref Frames
  20. Format settings, CABAC                   : Yes
  21. Format settings, Reference frames        : 5 frames
  22. Codec ID                                 : V_MPEG4/ISO/AVC
  23. Duration                                 : 1 h 40 min
  24. Bit rate                                 : 15.6 Mb/s
  25. Width                                    : 1 920 pixels
  26. Height                                   : 804 pixels
  27. Display aspect ratio                     : 2.40:1
  28. Frame rate mode                          : Constant
  29. Frame rate                               : 23.976 (24000/1001/53875) FPS
  30. Color space                              : YUV
  31. Chroma subsampling                       : 4:2:0
  32. Bit depth                                : 8 bits
  33. Scan type                                : Progressive
  34. Bits/(Pixel*Frame)                       : 0.423
  35. Stream size                              : 10.9 GiB (82%)
  36. Writing library                          : x264 core 157 r2969 d4099dd
  37. Encoding settings                        : cabac=1 / ref=5 / deblock=1:-3:-3 / analyse=0x3:0x133 / me=umh / subme=11 / psy=1 / psy_rd=1.00:0.00 / mixed_ref=1 / me_range=64 / chroma_me=1 / trellis=2 / 8x8dct=1 / cqm=0 / deadzone=21,11 / fast_pskip=0 / chroma_qp_offset=-2 / threads=24 / lookahead_threads=6 / sliced_threads=0 / nr=0 / decimate=0 / interlaced=0 / NTM4NzU= / bluray_compat=0 / constrained_intra=0 / bframes=12 / b_pyramid=2 / b_adapt=2 / b_bias=0 / direct=3 / weightb=1 / open_gop=0 / weightp=2 / keyint=250 / keyint_min=23 / NTM4NzU=uuDQuD2mJt9fsCf / scenecut=40 / intra_refresh=0 / rc=crf / mbtree=0 / crf=18.0 / qcomp=0.70 / qpmin=0 / qpmax=69 / qpstep=4 / NTM4NzU=LmsMAP37EqsCpk / ip_ratio=1.30 / pb_ratio=1.20 / aq=3:0.80
  38. Language                                 : English
  39. Default                                  : Yes
  40. Forced                                   : No
  41. Color range                              : Limited
  42. Color primaries                          : BT.709
  43. Matrix coefficients                      : BT.709
  44. Audio
  45. ID                                       : 2
  46. Format                                   : MLP FBA 16-ch
  47. Format/Info                              : Meridian Lossless Packing FBA with 16-channel presentation
  48. Commercial name                          : Dolby TrueHD with Dolby Atmos
  49. Codec ID                                 : A_TRUEHD
  50. Duration                                 : 1 h 40 min
  51. Bit rate mode                            : Variable
  52. Bit rate                                 : 3 166 kb/s
  53. Maximum bit rate                         : 4 686 kb/s
  54. Channel(s)                               : 8 channels
  55. Channel layout                           : L R C LFE Ls Rs Lb Rb
  56. Sampling rate                            : 48.0 kHz
  57. Frame rate                               : 1 200.000 FPS (40 SPF)
  58. Compression mode                         : Lossless
  59. Stream size                              : 2.21 GiB (16%)
  60. Default                                  : Yes
  61. Forced                                   : No
  62. Number of dynamic objects                : 11
  63. Bed channel count                        : 1 channel
  64. Bed channel configuration                : LFE
  65. Text #1
  66. ID                                       : 3
  67. Format                                   : PGS
  68. Muxing mode                              : zlib
  69. Codec ID                                 : S_HDMV/PGS
  70. Codec ID/Info                            : Picture based subtitle format used on BDs/HD-DVDs
  71. Duration                                 : 1 h 39 min
  72. Bit rate                                 : 56.2 kb/s
  73. Count of elements                        : 3934
  74. Stream size                              : 39.9 MiB (0%)
  75. Language                                 : English
  76. Default                                  : No
  77. Forced                                   : No
  78. Text #2
  79. ID                                       : 4
  80. Format                                   : PGS
  81. Muxing mode                              : zlib
  82. Codec ID                                 : S_HDMV/PGS
  83. Codec ID/Info                            : Picture based subtitle format used on BDs/HD-DVDs
  84. Duration                                 : 1 h 35 min
  85. Bit rate                                 : 130 kb/s
  86. Count of elements                        : 6684
  87. Stream size                              : 89.0 MiB (1%)
  88. Title                                    : chs
  89. Language                                 : Chinese
  90. Default                                  : Yes
  91. Forced                                   : No
  92. Text #3
  93. ID                                       : 5
  94. Format                                   : PGS
  95. Muxing mode                              : zlib
  96. Codec ID                                 : S_HDMV/PGS
  97. Codec ID/Info                            : Picture based subtitle format used on BDs/HD-DVDs
  98. Duration                                 : 1 h 35 min
  99. Bit rate                                 : 132 kb/s
  100. Count of elements                        : 6684
  101. Stream size                              : 90.4 MiB (1%)
  102. Title                                    : cht
  103. Language                                 : Chinese
  104. Default                                  : No
  105. Forced                                   : No
  106. Text #4
  107. ID                                       : 6
  108. Format                                   : PGS
  109. Muxing mode                              : zlib
  110. Codec ID                                 : S_HDMV/PGS
  111. Codec ID/Info                            : Picture based subtitle format used on BDs/HD-DVDs
  112. Duration                                 : 1 h 35 min
  113. Bit rate                                 : 180 kb/s
  114. Count of elements                        : 6684
  115. Stream size                              : 123 MiB (1%)
  116. Title                                    : chs & eng
  117. Language                                 : Chinese
  118. Default                                  : No
  119. Forced                                   : No
  120. Text #5
  121. ID                                       : 7
  122. Format                                   : PGS
  123. Muxing mode                              : zlib
  124. Codec ID                                 : S_HDMV/PGS
  125. Codec ID/Info                            : Picture based subtitle format used on BDs/HD-DVDs
  126. Duration                                 : 1 h 35 min
  127. Bit rate                                 : 182 kb/s
  128. Count of elements                        : 6684
  129. Stream size                              : 124 MiB (1%)
  130. Title                                    : cht & eng
  131. Language                                 : Chinese
  132. Default                                  : No
  133. Forced                                   : No
  134. Menu
  135. 00:00:00.000                             : :第 01 章
  136. 00:05:37.420                             : :第 02 章
  137. 00:10:32.632                             : :第 03 章
  138. 00:12:36.839                             : :第 04 章
  139. 00:15:41.566                             : :第 05 章
  140. 00:20:21.595                             : :第 06 章
  141. 00:25:25.232                             : :第 07 章
  142. 00:30:52.726                             : :第 08 章
  143. 00:40:03.151                             : :第 09 章
复制代码


坏蛋联盟[简繁英字幕].The.Bad.Guys.2022.BluRay.1080p.TrueHD.7.1.x264-CTRLHD 13.42GB

坏蛋联盟[简繁英字幕].The.Bad.Guys.2022.BluRay.1080p.TrueHD.7.1.x264-CTRLHD 13.42GB

坏蛋联盟[简繁英字幕].The.Bad.Guys.2022.BluRay.1080p.TrueHD.7.1.x264-CTRLHD 13.42GB

坏蛋联盟[简繁英字幕].The.Bad.Guys.2022.BluRay.1080p.TrueHD.7.1.x264-CTRLHD 13.42GB



蓝光高清网提示您 点击下方附件即可下载

坏蛋联盟[简繁英字幕].The.Bad.Guys.2022.BluRay.1080p.TrueHD.7.1.x264-CTRLHD 13.42GB

坏蛋联盟[简繁英字幕].The.Bad.Guys.2022.BluRay.1080p.TrueHD.7.1.x264-CTRLHD.torrent ( 34.59 KB )

加入蓝光高清网VIP会员  无限制下载本站所有资源---点这里

资源下载、资源播放、字幕使用、无法下载等常见问题---点这里
回复

使用道具 举报

全部回复2 显示全部楼层
ytkanke手机认证 发表于 2023-1-24 21:44:46 | 显示全部楼层
很好,到处找truehd的,多谢
回复 支持 反对

使用道具 举报

ytkanke手机认证 发表于 2023-1-24 21:48:19 | 显示全部楼层
到处找truehd的资源,太好了,多谢
回复 支持 反对

使用道具 举报

发表回复

您需要登录后才可以回帖 登录 | 立即注册

本版积分规则