蓝光高清网

搜索
开启左侧

[专题系列纪录片] 深海阴谋(港) / 海洋阴谋(台)/渔业阴谋4k.Seaspiracy.2021.2160p.NF.WEB-DL.x265.10bit.SDR.DDP5.1-4k电影下载-7.76 GB

蓝鸟 发表于 2022-6-13 11:10:33 | 显示全部楼层 |阅读模式

深海阴谋(港) / 海洋阴谋(台)/渔业阴谋4k.Seaspiracy.2021.2160p.NF.WEB-DL.x265.10bit.SDR.DDP5.1-4k电影 ...

深海阴谋(港) / 海洋阴谋(台)/渔业阴谋4k.Seaspiracy.2021.2160p.NF.WEB-DL.x265.10bit.SDR.DDP5.1-4k电影 ...



简       介


  开创性纪录片《奶牛阴谋》的联合创剧人带来《海洋阴谋》,这部后续纪录片揭示了令人担忧的事实:人类行为已对海洋环境造成广泛的破坏,但这点却鲜为人知。电影制作人阿里·塔瑞兹原本只打算拍摄他心爱的海洋,但后来却发现自己在审视人类对脆弱的海洋所造成的伤害。从污染水域的塑料和渔具,到底拖作业和副渔获造成的不可挽回的破坏,再到非法捕鱼和毁灭性的狩猎行为,人类正在对海洋生物造成重创,进而威胁到整个地球。塔瑞兹的最终发现不仅挑战了可持续捕鱼的理念,任何人如果关注海洋生命、地球的未来以及人类和地球的关系,都将从中得到警示。

影片参数
深海阴谋(港) / 海洋阴谋(台)/渔业阴谋4k.Seaspiracy.2021.2160p.NF.WEB-DL.x265.10bit.SDR.DDP5.1-4k电影信息
Video
ID : 1
Format : HEVC
Format/Info : High Efficiency Video Coding
Format profile : Main 10@L5@Main
Codec ID : V_MPEGH/ISO/HEVC
Duration : 1 h 30 min
Bit rate : 11.7 Mb/s
Width : 3 840 pixels
Height : 2 160 pixels
Display aspect ratio : 16:9
Frame rate mode : Constant
Frame rate : 23.976 (24000/1001) FPS
Color space : YUV
Chroma subsampling : 4:2:0
Bit depth : 10 bits
Bits/(Pixel*Frame) : 0.059
Stream size : 7.36 GiB (95%)
Default : Yes
Forced : No
Color range : Limited
Color primaries : BT.709
Transfer characteristics : BT.709
Matrix coefficients : BT.709

Audio
ID : 2
Format : E-AC-3
Format/Info : Enhanced AC-3
Commercial name : Dolby Digital Plus
Codec ID : A_EAC3
Duration : 1 h 30 min
Bit rate mode : Constant
Bit rate : 640 kb/s
Channel(s) : 6 channels
Channel layout : L R C LFE Ls Rs
Sampling rate : 48.0 kHz
Frame rate : 31.250 FPS (1536 SPF)
Compression mode : Lossy
Stream size : 413 MiB (5%)
Title : English
Language : English
Service kind : Complete Main
Default : Yes
Forced : No

Text #1
ID : 3
Format : UTF-8
Codec ID : S_TEXT/UTF8
Codec ID/Info : UTF-8 Plain Text
Duration : 1 h 28 min
Bit rate : 150 b/s
Count of elements : 1699
Stream size : 97.3 KiB (0%)
Title : English
Language : English
Default : Yes
Forced : No

Text #2
ID : 4
Format : UTF-8
Codec ID : S_TEXT/UTF8
Codec ID/Info : UTF-8 Plain Text
Duration : 1 h 11 min
Bit rate : 4 b/s
Count of elements : 58
Stream size : 2.24 KiB (0%)
Title : Forced
Language : English
Default : No
Forced : Yes

Text #3
ID : 5
Format : UTF-8
Codec ID : S_TEXT/UTF8
Codec ID/Info : UTF-8 Plain Text
Duration : 1 h 28 min
Bit rate : 187 b/s
Count of elements : 1682
Stream size : 122 KiB (0%)
Title : Arabic
Language : Arabic
Default : No
Forced : No

Text #4
ID : 6
Format : UTF-8
Codec ID : S_TEXT/UTF8
Codec ID/Info : UTF-8 Plain Text
Duration : 1 h 28 min
Bit rate : 104 b/s
Count of elements : 1614
Stream size : 67.9 KiB (0%)
Title : Chinese Simplified
Language : Chinese
Default : No
Forced : No

Text #5
ID : 7
Format : UTF-8
Codec ID : S_TEXT/UTF8
Codec ID/Info : UTF-8 Plain Text
Duration : 1 h 28 min
Bit rate : 93 b/s
Count of elements : 1698
Stream size : 60.9 KiB (0%)
Title : Chinese Traditional
Language : Chinese
Default : No
Forced : No

蓝光高清网提示您 点击下方附件名称 即可开始下载

深海阴谋(港) / 海洋阴谋(台)/渔业阴谋4k.Seaspiracy.2021.2160p.NF.WEB-DL.x265.10bit.SDR.DDP5.1-4k电影下载

渔业阴谋4k.Seaspiracy.2021.2160p.NF.WEB-DL.x265.10bit.SDR.DDP5.1简繁中字【4k SDR 7.76 GB】


来源: 深海阴谋(港) / 海洋阴谋(台)/渔业阴谋4k.Seaspiracy.2021.2160p.NF.WEB-DL.x265.10bit.SDR.DDP5.1-4k电影下载-7.76 GB

加入蓝光高清网VIP会员  无限制下载本站所有资源---点这里

资源下载、资源播放、字幕使用、无法下载等常见问题---点这里
回复

使用道具 举报

全部回复0 显示全部楼层

发表回复

您需要登录后才可以回帖 登录 | 立即注册

本版积分规则

联系客服 关注微信 下载APP 返回顶部 返回列表