蓝光高清网

搜索
开启左侧

可爱的小农场4k.Lovely.Little.Farm.S01.2160p.ATVP.WEB-DL.x265.10bit.HDR.DDP5.1.Atmos-4k英剧下载-30.70 GB

蓝鸟 发表于 2022-6-15 11:45:11 | 显示全部楼层 |阅读模式
可爱的小农场 豆瓣评分: 无评分

状态:第一季(完结)
上映时间:2022-06-10
类型:剧情 
地区:英国
导演:杰克·詹姆斯昂
主演:雪莉·亨德森 / 乔尔·弗莱 / 多米妮克·摩尔 / 伊登·高夫 / Nick Kellington
画质标准:4K(3840x2160) 封装音轨:5.1声道 音轨编码:其他DD
剧情简介
  坐落在薰衣草田里的是一个可爱的小农场,吉尔和杰基姐妹在这里养育和爱他们所有的动物——包括会说话的动物。作为一个年轻的农民并不容易,但每一天都会带来冒险和成长的机会。6 月 10 日在 Apple TV+ 上播放《可爱的小农场》....
影片参数
可爱的小农场4k.Lovely.Little.Farm.S01.2160p.ATVP.WEB-DL.x265.10bit.HDR.DDP5.1.Atmos-4k英剧信息
Video
ID : 1
Format : HEVC
Format/Info : High Efficiency Video Coding
Format profile : Main 10@L5@High
HDR format : SMPTE ST 2086, HDR10 compatible
Codec ID : V_MPEGH/ISO/HEVC
Duration : 27 min 1 s
Bit rate : 24.6 Mb/s
Width : 3 840 pixels
Height : 1 920 pixels
Display aspect ratio : 2.000
Frame rate mode : Constant
Frame rate : 23.976 (24000/1001) FPS
Color space : YUV
Chroma subsampling : 4:2:0 (Type 2)
Bit depth : 10 bits
Bits/(Pixel*Frame) : 0.139
Stream size : 4.65 GiB (97%)
Language : English
Default : Yes
Forced : No
Color range : Limited
Color primaries : BT.2020
Transfer characteristics : PQ
Matrix coefficients : BT.2020 non-constant
Mastering display color primaries : Display P3
Mastering display luminance : min: 0.0050 cd/m2, max: 1000 cd/m2
Maximum Content Light Level : 1082 cd/m2
Maximum Frame-Average Light Level : 286 cd/m2


Audio
ID : 2
Format : E-AC-3 JOC
Format/Info : Enhanced AC-3 with Joint Object Coding
Commercial name : Dolby Digital Plus with Dolby Atmos
Codec ID : A_EAC3
Duration : 27 min 1 s
Bit rate mode : Constant
Bit rate : 768 kb/s
Channel(s) : 6 channels
Channel layout : L R C LFE Ls Rs
Sampling rate : 48.0 kHz
Frame rate : 31.250 FPS (1536 SPF)
Compression mode : Lossy
Stream size : 148 MiB (3%)
Language : English
Service kind : Complete Main
Default : Yes
Forced : No
Complexity index : 16
Number of dynamic objects : 15
Bed channel count : 1 channel
Bed channel configuration : LFE


Text #1
ID : 3
Format : UTF-8
Codec ID : S_TEXT/UTF8
Codec ID/Info : UTF-8 Plain Text
Duration : 26 min 20 s
Bit rate : 50 b/s
Count of elements : 396
Stream size : 9.77 KiB (0%)
Title : English
Language : English
Default : No
Forced : No


Text #2
ID : 4
Format : UTF-8
Codec ID : S_TEXT/UTF8
Codec ID/Info : UTF-8 Plain Text
Duration : 26 min 22 s
Bit rate : 66 b/s
Count of elements : 498
Stream size : 12.9 KiB (0%)
Title : English (SDH)
Language : English
Default : No
Forced : No




蓝光高清网提示您 点击下方附件名称 即可开始下载


多版本下载时请注意区分


可爱的小农场4k.Lovely.Little.Farm.S01.2160p.ATVP.WEB-DL.x265.10bit.HDR.DDP5.1.Atmos-4k英剧下载

可爱的小农场4k.Lovely.Little.Farm.S01.2160p.ATVP.WEB-DL.x265.10bit.HDR.DDP5.1.Atmos【4k HDR 30.70 GB】

可爱的小农场4k.Lovely.Little.Farm.S01.2160p.ATVP.WEB-DL.x265.10bit.HDR.DDP5.1.Atmos-SALT.torrent ( 39.55 KB )



可爱的小农场4k.Lovely.Little.Farm.S01.2160p.ATVP.WEB-DL.DDP5.1.Atmos.x265【4k HDR 25.89 GB】

可爱的小农场4k.Lovely.Little.Farm.S01.2160p.ATVP.WEB-DL.DDP5.1.Atmos.x265..torrent ( 33.47 KB )



可爱的小农场4k.Lovely.Little.Farm.S01.2160p.ATVP.WEB-DL.DDP5.1.Atmos.DV.MP4.x265【4k 杜比视界 30.91 GB】

可爱的小农场4k.Lovely.Little.Farm.S01.2160p.ATVP.WEB-DL.DDP5.1.Atmos.DV.MP4.x265-DVSUX.torrent ( 39.97 KB )



可爱的小农场4k.Lovely.Little.Farm.S01.2160p.ATVP.WEB-DL.DDP5.1.Atmos.DV.MKV.x265【4k 杜比视界 30.91 GB】

可爱的小农场4k.Lovely.Little.Farm.S01.2160p.ATVP.WEB-DL.DDP5.1.Atmos.DV.MKV.x265-SAL.torrent ( 39.79 KB )




加入蓝光高清网VIP会员  无限制下载本站所有资源---点这里

资源下载、资源播放、字幕使用、无法下载等常见问题---点这里
回复

使用道具 举报

全部回复1 显示全部楼层
gdlmxia 发表于 2022-6-15 12:49:11 | 显示全部楼层
太好啦&萬分感謝版主的無私發佈分享%
回复 支持 反对

使用道具 举报

发表回复

您需要登录后才可以回帖 登录 | 立即注册

本版积分规则

联系客服 关注微信 下载APP 返回顶部 返回列表