蓝光高清网

搜索
开启左侧

玩家4k.Players.2022.S01E01.2160p.WEB.H265-4k美剧下载-5.37 GB

蓝鸟 发表于 2022-6-17 08:06:04 | 显示全部楼层 |阅读模式
玩家 豆瓣评分: 无评分

状态:第一季(更新至第4集)
上映时间:2022-06-16
类型:喜剧 
地区:美国
导演:Tim McAuliffe / 马克·斯塔森科
主演:未知
画质标准:4K(3840x2160) 封装音轨:5.1声道 音轨编码:其他DD
剧情简介
 PLAYERS 由获得皮博迪奖的“American Vandal”创作者 Tony Yacenda 和 Dan Perrault 打造,是一部喜剧纪录片风格的系列剧,讲述了一个虚构的职业英雄联盟电子竞技团队,他们在经过多年的近距离通话和心痛。为了赢得这一切,他们需要他们的神童,一个 17 岁的新秀,和他们 27 岁的老将放下自负,一起努力....
影片参数
玩家4k.Players.2022.S01E01.2160p.WEB.H265-4k美剧信息
Video
ID : 1
Format : HEVC
Format/Info : High Efficiency Video Coding
Format profile : Main 10@L5@High
Codec ID : V_MPEGH/ISO/HEVC
Duration : 34 min 46 s
Bit rate : 20.2 Mb/s
Width : 3 840 pixels
Height : 2 160 pixels
Display aspect ratio : 16:9
Frame rate mode : Constant
Frame rate : 23.976 (24000/1001) FPS
Color space : YUV
Chroma subsampling : 4:2:0
Bit depth : 10 bits
Bits/(Pixel*Frame) : 0.102
Stream size : 4.91 GiB (94%)
Language : English
Default : Yes
Forced : No
Color range : Limited
Color primaries : BT.709
Transfer characteristics : BT.709
Matrix coefficients : BT.709


Audio
ID : 2
Format : E-AC-3 JOC
Format/Info : Enhanced AC-3 with Joint Object Coding
Commercial name : Dolby Digital Plus with Dolby Atmos
Codec ID : A_EAC3
Duration : 34 min 46 s
Bit rate mode : Constant
Bit rate : 768 kb/s
Channel(s) : 6 channels
Channel layout : L R C LFE Ls Rs
Sampling rate : 48.0 kHz
Frame rate : 31.250 FPS (1536 SPF)
Compression mode : Lossy
Stream size : 191 MiB (4%)
Language : English
Service kind : Complete Main
Default : Yes
Forced : No
Complexity index : 16
Number of dynamic objects : 15
Bed channel count : 1 channel
Bed channel configuration : LFE


Text
ID : 3
Format : UTF-8
Codec ID : S_TEXT/UTF8
Codec ID/Info : UTF-8 Plain Text
Title : English
Language : English
Default : No
Forced : No


蓝光高清网提示您 点击下方附件名称 即可开始下载


多版本下载时请注意区分


玩家4k.Players.2022.S01E01.2160p.WEB.H265-4k美剧下载

玩家4k.Players.2022.S01E01.2160p.WEB.H265【4k 5.37 GB】

玩家4k.Players.2022.S01E01.2160p.WEB.H265-GGEZ.torrent ( 14.23 KB )



玩家4k.Players.2022.S01E01.2160p.WEB-DL.DDP5.1.Atmos.DV.MP4.x265【4k 3.66 GB】

玩家4k.Players.2022.S01E01.2160p.WEB-DL.DDP5.1.Atmos.DV.MP4.x265-DVSUX.torrent ( 18.97 KB )



玩家4k.Players.2022.S01E01.HDR.2160p.WEB.H265【4k 3.63 GB】

玩家4k.Players.2022.S01E01.HDR.2160p.WEB.H265-GGEZ.torrent ( 18.86 KB )



玩家4k.Players.2022.S01E02.2160p.WEB-DL.DDP5.1.Atmos.DV.MKV.x265【4k 2.97 GB】

玩家4k.Players.2022.S01E02.2160p.WEB-DL.DDP5.1.Atmos.DV.MKV.x265-GGEZ.torrent ( 30.42 KB )



玩家4k.Players.2022.S01E02.2160p.WEB-DL.DDP5.1.Atmos.DV.MP4.x265【4k 2.97 GB】

玩家4k.Players.2022.S01E02.2160p.WEB-DL.DDP5.1.Atmos.DV.MP4.x265-DVSUX.torrent ( 30.37 KB )



玩家4k.Players.2022.S01E02.HDR.2160p.WEB.h265【4k 2.75 GB】

玩家4k.Players.2022.S01E02.HDR.2160p.WEB.h265-KOGi.torrent ( 28.24 KB )



玩家4k.Players.2022.S01E03.2160p.WEB.H265【4k 4.65 GB】

玩家4k.Players.2022.S01E03.2160p.WEB.H265-GGEZ.torrent ( 24.05 KB )



玩家4k.Players.2022.S01E03.2160p.WEB-DL.DDP5.1.Atmos.DV.MKV.x265【4k 2.95 GB】

玩家4k.Players.2022.S01E03.2160p.WEB-DL.DDP5.1.Atmos.DV.MKV.x265-KOGi.torrent ( 30.19 KB )



玩家4k.Players.2022.S01E03.2160p.WEB-DL.DDP5.1.Atmos.DV.MP4.x265【4k 2.95 GB】

玩家4k.Players.2022.S01E03.2160p.WEB-DL.DDP5.1.Atmos.DV.MP4.x265-DVSUX.torrent ( 30.14 KB )



玩家4k.Players.2022.S01E03.HDR.2160p.WEB.h265【4k 2.90 GB】

玩家4k.Players.2022.S01E03.HDR.2160p.WEB.h265-KOGi.torrent ( 29.73 KB )



玩家4k.Players.2022.S01E04.2160p.WEB-DL.DDP5.1.Atmos.DV.MKV.x265【4k 3.41 GB】

玩家4k.Players.2022.S01E04.2160p.WEB-DL.DDP5.1.Atmos.DV.MP4.x265-DVSUX.torrent ( 17.72 KB )



玩家4k.Players.2022.S01E04.2160p.WEB-DL.DDP5.1.Atmos.DV.MP4.x265【4k 3.41 GB】

玩家4k.Players.2022.S01E04.HDR.2160p.WEB.h265-KOGi.torrent ( 17.4 KB )



玩家4k.Players.2022.S01E04.HDR.2160p.WEB.h265【4k 3.34 GB】

玩家4k.Players.2022.S01E04.2160p.WEB.H265-GGEZ.torrent ( 13.96 KB )




加入蓝光高清网VIP会员  无限制下载本站所有资源---点这里

资源下载、资源播放、字幕使用、无法下载等常见问题---点这里
回复

使用道具 举报

全部回复1 显示全部楼层
gdlmxia 发表于 2022-6-17 11:29:20 | 显示全部楼层
太好啦&萬分感謝版主的無私發佈分享%
回复 支持 反对

使用道具 举报

发表回复

您需要登录后才可以回帖 登录 | 立即注册

本版积分规则

联系客服 关注微信 下载APP 返回顶部 返回列表