蓝光高清网

搜索
开启左侧

超创意新居(港) / 前所未见的独特家园 / 全世界超创意新居/家园 第二季4k.Home.2020.S02.2160p.ATVP.WEB-DL.x265.10bit.SDR.DD5.1.Atmos-4k美剧纪录片下载

蓝鸟 发表于 7 天前 | 显示全部楼层 |阅读模式
家园 豆瓣评分: 8.1分

状态:第二季(完结)
上映时间:2020-06-02
类型:纪录 
地区:美国
导演:罗纳德·D·摩尔
主演:未知
画质标准:4K(3840x2160) 封装音轨:5.1声道 音轨编码:其他DD
剧情简介
暂无简介....
影片参数
超创意新居(港) / 前所未见的独特家园 / 全世界超创意新居/家园 第二季4k.Home.2020.S02.2160p.ATVP.WEB-DL.x265.10bit.SDR.DD5.1.Atmos-4k美剧纪录片信息
Video
ID : 1
Format : HEVC
Format/Info : High Efficiency Video Coding
Format profile : Main 10@L5@High
Codec ID : V_MPEGH/ISO/HEVC
Duration : 39 min 26 s
Bit rate : 20.5 Mb/s
Width : 3 840 pixels
Height : 1 920 pixels
Display aspect ratio : 2.000
Frame rate mode : Constant
Frame rate : 23.976 FPS
Color space : YUV
Chroma subsampling : 4:2:0
Bit depth : 10 bits
Bits/(Pixel*Frame) : 0.116
Stream size : 5.64 GiB (96%)
Default : Yes
Forced : No
Color range : Limited
Color primaries : BT.709
Transfer characteristics : BT.709
Matrix coefficients : BT.709


Audio
ID : 2
Format : E-AC-3 JOC
Format/Info : Enhanced AC-3 with Joint Object Coding
Commercial name : Dolby Digital Plus with Dolby Atmos
Codec ID : A_EAC3
Duration : 39 min 26 s
Bit rate mode : Constant
Bit rate : 768 kb/s
Channel(s) : 6 channels
Channel layout : L R C LFE Ls Rs
Sampling rate : 48.0 kHz
Frame rate : 31.250 FPS (1536 SPF)
Compression mode : Lossy
Stream size : 217 MiB (4%)
Language : English
Service kind : Complete Main
Default : Yes
Forced : No
Complexity index : 16
Number of dynamic objects : 15
Bed channel count : 1 channel
Bed channel configuration : LFE


Text #1
ID : 3
Format : UTF-8
Codec ID : S_TEXT/UTF8
Codec ID/Info : UTF-8 Plain Text
Duration : 3 min 54 s
Bit rate : 91 b/s
Count of elements : 57
Stream size : 2.63 KiB (0%)
Title : Forced
Language : English
Default : Yes
Forced : Yes


Text #2
ID : 4
Format : UTF-8
Codec ID : S_TEXT/UTF8
Codec ID/Info : UTF-8 Plain Text
Duration : 37 min 44 s
Bit rate : 101 b/s
Count of elements : 599
Stream size : 28.0 KiB (0%)
Language : English
Default : No
Forced : No


Text #3
ID : 5
Format : UTF-8
Codec ID : S_TEXT/UTF8
Codec ID/Info : UTF-8 Plain Text
Duration : 37 min 44 s
Bit rate : 106 b/s
Count of elements : 618
Stream size : 29.4 KiB (0%)
Title : SDH
Language : English
Default : No
Forced : No


Text #4
ID : 6
Format : UTF-8
Codec ID : S_TEXT/UTF8
Codec ID/Info : UTF-8 Plain Text
Duration : 39 min 8 s
Bit rate : 138 b/s
Count of elements : 611
Stream size : 39.6 KiB (0%)
Language : Arabic
Default : No
Forced : No


Text #5
ID : 7
Format : UTF-8
Codec ID : S_TEXT/UTF8
Codec ID/Info : UTF-8 Plain Text
Duration : 39 min 8 s
Bit rate : 143 b/s
Count of elements : 555
Stream size : 41.1 KiB (0%)
Language : Bulgarian
Default : No
Forced : No


Text #6
ID : 8
Format : UTF-8
Codec ID : S_TEXT/UTF8
Codec ID/Info : UTF-8 Plain Text
Duration : 39 min 8 s
Bit rate : 81 b/s
Count of elements : 611
Stream size : 23.3 KiB (0%)
Title : Simplified
Language : Chinese
Default : No
Forced : No


Text #7
ID : 9
Format : UTF-8
Codec ID : S_TEXT/UTF8
Codec ID/Info : UTF-8 Plain Text
Duration : 39 min 8 s
Bit rate : 75 b/s
Count of elements : 612
Stream size : 21.8 KiB (0%)
Title : Traditional
Language : Chinese
Default : No
Forced : No


蓝光高清网提示您 点击下方附件名称 即可开始下载


多版本下载时请注意区分


超创意新居(港) / 前所未见的独特家园 / 全世界超创意新居/家园 第二季4k.Home.2020.S02.2160p.ATVP.WEB-DL.x265.10bit.SDR.DD5.1.Atmos-4k美剧纪录片下载

家园 第二季4k.Home.2020.S02.2160p.ATVP.WEB-DL.x265.10bit.SDR.DD5.1.Atmos【4k SDR 53.95 GB 】

家园4k.Home.2020.S02.2160p.ATVP.WEB-DL.x265.10bit.SDR.DD5.1.Atmos-NTb.torrent ( 69.1 KB )



家园 第二季4k.Home.2020.S02.2160p.ATVP.WEB-DL.x265.10bit.HDR.DD5.1.Atmos【4k HDR 62.55 GB】

家园4k.Home.2020.S02.2160p.ATVP.WEB-DL.x265.10bit.HDR.DD5.1.Atmos-NTb.torrent ( 79.89 KB )



家园 第二季4k.Home.2020.S02.2160p.ATVP.WEB-DL.DDP5.1.Atmos.DV.MP4.x265【4k 杜比视界 63.71 GB】

家园4k.Home.2020.S02.2160p.ATVP.WEB-DL.DDP5.1.Atmos.DV.MP4.x265-DVSUX.torrent ( 81.44 KB )



家园 第二季4k.Home.2020.S02.2160p.ATVP.WEB-DL.DDP5.1.Atmos.DV.MKV.x265【4k 杜比视界 63.71 GB】

家园4k.Home.2020.S02.2160p.ATVP.WEB-DL.DDP5.1.Atmos.DV.MKV.x265-NTb.torrent ( 81.35 KB )



家园 第一季
https://www.4kii.com/thread-87563-1-1.html

加入蓝光高清网VIP会员  无限制下载本站所有资源---点这里

资源下载、资源播放、字幕使用、无法下载等常见问题---点这里
回复

使用道具 举报

全部回复1 显示全部楼层
gdlmxia 发表于 7 天前 | 显示全部楼层
太好啦&萬分感謝版主的無私發佈分享%
回复 支持 反对

使用道具 举报

发表回复

您需要登录后才可以回帖 登录 | 立即注册

本版积分规则

联系客服 关注微信 下载APP 返回顶部 返回列表