蓝光高清网

搜索
开启左侧

塔克:其人其梦 / 美国之梦/Tucker.The.Man.and.His.Dream.1988.2160p.AMZN.WEB-DL.x265.10bit.HDR10Plus.DTS-HD.MA.TrueHD.5.1-4k电影下载-18.43 GB

蓝鸟 发表于 前天 09:07 | 显示全部楼层 |阅读模式
美国之梦 豆瓣评分: 6.8分
上映时间:更早
类型:剧情 传记 
地区:美国 
导演:弗朗西斯·福特·科波拉
主演:马丁·兰道 / 杰夫·布里吉斯 / 琼·艾伦
画质标准:4K HDR  封装音轨:DTS-HD.MA 5.1 Dolby TrueHD 5.1 
简       介

  1945年的美国密执安州的伊普兰蒂,著名汽车发明家普雷斯顿·塔克向犹太金融家阿贝·卡拉兹请求给予其新设计的一种汽车以资助。这种利用空气动力学原理的新型“鱼雷”牌小汽车被称为“明天的汽车”。阿贝·卡拉兹答应了塔克的请求。在获得了政府的批准后,塔克以芝加哥一家战前的旧工厂作为其实验场地。塔克和机械师昼夜奋战,他们必须在第一年生产出50辆小汽车。终于,在他们的不懈努力下,第一辆“鱼雷”牌汽车被成功地制造出来。在“鱼雷”牌小汽车投入生产时,底特律的汽车制造商嫉妒他的发明,他们发起了一场进攻——三大汽车公司授权参议员作为发言人,对塔克的公司施加压力,百般刁难、诬陷塔克,还从技术上控制了塔克的公司,终于使塔克的工厂因受审而倒闭,埋葬了塔克和他的梦想。塔克在六年后因癌症去世,底特律汽车公司接收了他的所有发明成果。

影片参数
塔克:其人其梦 / 美国之梦/Tucker.The.Man.and.His.Dream.1988.2160p.AMZN.WEB-DL.x265.10bit.HDR10Plus.DTS-HD.MA.TrueHD.5.1-4k电影信息
Video
ID : 1
Format : HEVC
Format/Info : High Efficiency Video Coding
Format profile : Main 10@L5@Main
HDR format : SMPTE ST 2094 App 4, Version 1, HDR10+ Profile B compatible
Codec ID : V_MPEGH/ISO/HEVC
Duration : 1 h 50 min
Bit rate : 15.0 Mb/s
Width : 3 840 pixels
Height : 1 600 pixels
Display aspect ratio : 2.40:1
Frame rate mode : Constant
Frame rate : 23.976 (24000/1001) FPS
Color space : YUV
Chroma subsampling : 4:2:0
Bit depth : 10 bits
Bits/(Pixel*Frame) : 0.102
Stream size : 11.6 GiB (63%)
Language : English
Default : Yes
Forced : No
Color range : Limited
Color primaries : BT.2020
Transfer characteristics : PQ
Matrix coefficients : BT.2020 non-constant
Mastering display color primaries : Display P3
Mastering display luminance : min: 0.0050 cd/m2, max: 1000 cd/m2
Maximum Content Light Level : 2232 cd/m2
Maximum Frame-Average Light Level : 503 cd/m2




Audio #1
ID : 2
Format : MLP FBA
Format/Info : Meridian Lossless Packing FBA
Commercial name : Dolby TrueHD
Codec ID : A_TRUEHD
Duration : 1 h 50 min
Bit rate mode : Variable
Bit rate : 3 511 kb/s
Maximum bit rate : 4 782 kb/s
Channel(s) : 6 channels
Channel layout : L R C LFE Ls Rs
Sampling rate : 48.0 kHz
Frame rate : 1 200.000 FPS (40 SPF)
Compression mode : Lossless
Stream size : 2.71 GiB (15%)
Title : Dolby TrueHD Audio / 5.1 / 48 kHz / 3510 kbps / 24-bit
Language : English
Default : Yes
Forced : No




Audio #2
ID : 3
Format : DTS XLL
Format/Info : Digital Theater Systems
Commercial name : DTS-HD Master Audio
Codec ID : A_DTS
Duration : 1 h 50 min
Bit rate mode : Variable
Bit rate : 3 965 kb/s
Channel(s) : 6 channels
Channel layout : C L R Ls Rs LFE
Sampling rate : 48.0 kHz
Frame rate : 93.750 FPS (512 SPF)
Bit depth : 24 bits
Compression mode : Lossless
Delay relative to video : 3 ms
Stream size : 3.06 GiB (17%)
Title : DTS-HD MA 5.1
Language : English
Default : No
Forced : No




Audio #3
ID : 4
Format : AC-3
Format/Info : Audio Coding 3
Commercial name : Dolby Digital
Codec ID : A_AC3
Duration : 1 h 50 min
Bit rate mode : Constant
Bit rate : 640 kb/s
Channel(s) : 6 channels
Channel layout : L R C LFE Ls Rs
Sampling rate : 48.0 kHz
Frame rate : 31.250 FPS (1536 SPF)
Compression mode : Lossy
Delay relative to video : 24 ms
Stream size : 506 MiB (3%)
Title : Compatibility Track / Dolby Digital Audio / 5.1 / 48 kHz / 640 kbps
Language : English
Service kind : Complete Main
Default : No
Forced : No




Audio #4
ID : 5
Format : E-AC-3
Format/Info : Enhanced AC-3
Commercial name : Dolby Digital Plus
Codec ID : A_EAC3
Duration : 1 h 50 min
Bit rate mode : Constant
Bit rate : 640 kb/s
Channel(s) : 6 channels
Channel layout : L R C LFE Ls Rs
Sampling rate : 48.0 kHz
Frame rate : 31.250 FPS (1536 SPF)
Compression mode : Lossy
Stream size : 506 MiB (3%)
Language : English
Service kind : Complete Main
Default : No
Forced : No




Text #1
ID : 6
Format : UTF-8
Codec ID : S_TEXT/UTF8
Codec ID/Info : UTF-8 Plain Text
Duration : 1 h 44 min
Bit rate : 69 b/s
Count of elements : 2067
Stream size : 53.7 KiB (0%)
Title : SDH
Language : English
Default : Yes
Forced : No




Text #2
ID : 7
Format : PGS
Muxing mode : zlib
Codec ID : S_HDMV/PGS
Codec ID/Info : Picture based subtitle format used on BDs/HD-DVDs
Duration : 1 h 44 min
Bit rate : 53.7 kb/s
Count of elements : 3508
Stream size : 40.3 MiB (0%)
Language : English
Default : No
Forced : No




Text #3
ID : 8
Format : PGS
Muxing mode : zlib
Codec ID : S_HDMV/PGS
Codec ID/Info : Picture based subtitle format used on BDs/HD-DVDs
Duration : 1 h 49 min
Bit rate : 53.6 kb/s
Count of elements : 3724
Stream size : 42.1 MiB (0%)
Title : SDH
Language : English
Default : No
Forced : No




Text #4
ID : 9
Format : PGS
Muxing mode : zlib
Codec ID : S_HDMV/PGS
Codec ID/Info : Picture based subtitle format used on BDs/HD-DVDs
Duration : 1 h 45 min
Bit rate : 49.5 kb/s
Count of elements : 3496
Stream size : 37.3 MiB (0%)
Title : Latin American
Language : Spanish
Default : No
Forced : No




Menu
00:00:00.000 : en:Chapter 1
00:05:17.192 : en:Chapter 2
00:12:38.174 : en:Chapter 3
00:19:40.971 : en:Chapter 4
00:26:29.296 : en:Chapter 5
00:32:46.089 : en:Chapter 6
00:39:02.590 : en:Chapter 7
00:42:35.803 : en:Chapter 8
00:50:55.010 : en:Chapter 9
00:58:46.523 : en:Chapter 10
01:04:58.019 : en:Chapter 11
01:10:32.395 : en:Chapter 12
01:17:55.713 : en:Chapter 13
01:25:05.434 : en:Chapter 14
01:30:21.249 : en:Chapter 15
01:42:02.658 : en:Chapter 16
Trailer:         Play trailer

蓝光高清网提示您 点击下方附件名称 即可开始下载


塔克:其人其梦 / 美国之梦/创业先锋4k.Tucker.The.Man.and.His.Dream.1988.2160p.AMZN.WEB-DL.x265.10bit.HDR10Plus.DTS-HD.MA.TrueHD.5.1-4k电影下载

创业先锋4k.Tucker.The.Man.and.His.Dream.1988.2160p.AMZN.WEB-DL.x265.10bit.HDR10Plus.DTS-HD.MA.TrueHD.5.1【4k HDR10 18.43 GB】

创业先锋4k.Tucker.The.Man.and.His.Dream.1988.2160p.AMZN.WEB-DL.x265.10bit.HDR10Plus.DTS-HD.MA.TrueHD.5.1-NOGRP.torrent ( 23.76 KB )




加入蓝光高清网VIP会员  无限制下载本站所有资源---点这里

资源下载、资源播放、字幕使用、无法下载等常见问题---点这里
回复

使用道具 举报

全部回复0 显示全部楼层

发表回复

您需要登录后才可以回帖 登录 | 立即注册

本版积分规则

联系客服 关注微信 下载APP 返回顶部 返回列表