蓝光高清网

搜索
开启左侧

女王与知己(台) / 维多利亚女王:日不落奇缘(港)/维多利亚与阿卜杜勒4k.Victoria.and.Abdul.2017.2160p.AMZN.WEB-DL.x265.10bit.HDR10Plus.DTS-HD.MA.5.1-4k电影下载-14.41 GB

蓝鸟 发表于 前天 09:13 | 显示全部楼层 |阅读模式
维多利亚与阿卜杜勒 豆瓣评分: 6.4分
上映时间:2017年
类型:剧情 传记 历史 
地区:美国 
导演:斯蒂芬·弗雷斯
主演:朱迪·丹奇 / 阿里·法扎勒 / 蒂姆·皮戈特-史密斯 / 艾迪·伊扎德 / 阿迪勒·阿赫塔尔
画质标准:4K HDR  封装音轨:DTS-HD.MA 5.1 
简       介

  维多利亚女王(朱迪·丹奇 Judi Dench 饰)早已经记不清自己坐上这王位已经多久了,没有登基之前的日子对于她来说仿佛是上辈子的记忆。充斥着繁文缛节的宫廷生活让维多利亚女王倍感疲惫,即将到来的,庆祝女王登基五十周年的庆典亦令这位老太太感到窒息。
  在庆典中,维多利亚女王意外的邂逅了一位名为阿卜杜勒(阿里·法扎尔 Ali Fazal 饰)的男仆,这位充满了活力的年轻男子带给女王一种焕然一新的感觉。阿卜杜勒本是一名平凡的上班族,特意为了参加庆典从印度飞往英国。阿卜杜勒的存在让女王意识到,原来在她的宫廷之外,竟然还存在着一个她未曾想象过的丰富多彩的新世界。



影片参数
女王与知己(台) / 维多利亚女王:日不落奇缘(港)/维多利亚与阿卜杜勒4k.Victoria.and.Abdul.2017.2160p.AMZN.WEB-DL.x265.10bit.HDR10Plus.DTS-HD.MA.5.1-4k电影信息
Video
ID : 1
Format : HEVC
Format/Info : High Efficiency Video Coding
Format profile : Main 10@L5@Main
HDR format : SMPTE ST 2094 App 4, Version 1, HDR10+ Profile B compatible
Codec ID : V_MPEGH/ISO/HEVC
Duration : 1 h 51 min
Bit rate : 14.6 Mb/s
Width : 3 840 pixels
Height : 1 600 pixels
Display aspect ratio : 2.40:1
Frame rate mode : Constant
Frame rate : 23.976 (24000/1001) FPS
Color space : YUV
Chroma subsampling : 4:2:0
Bit depth : 10 bits
Bits/(Pixel*Frame) : 0.099
Stream size : 11.3 GiB (79%)
Language : English
Default : Yes
Forced : No
Color range : Limited
Color primaries : BT.2020
Transfer characteristics : PQ
Matrix coefficients : BT.2020 non-constant
Mastering display color primaries : Display P3
Mastering display luminance : min: 0.0050 cd/m2, max: 1000 cd/m2
Maximum Content Light Level : 655 cd/m2
Maximum Frame-Average Light Level : 224 cd/m2


Audio #1
ID : 2
Format : DTS XLL
Format/Info : Digital Theater Systems
Commercial name : DTS-HD Master Audio
Codec ID : A_DTS
Duration : 1 h 51 min
Bit rate mode : Variable
Bit rate : 3 317 kb/s
Channel(s) : 6 channels
Channel layout : C L R Ls Rs LFE
Sampling rate : 48.0 kHz
Frame rate : 93.750 FPS (512 SPF)
Bit depth : 24 bits
Compression mode : Lossless
Delay relative to video : 1 s 0 ms
Stream size : 2.58 GiB (18%)
Title : DTS-HD MA 5.1
Language : English
Default : Yes
Forced : No


Audio #2
ID : 3
Format : E-AC-3
Format/Info : Enhanced AC-3
Commercial name : Dolby Digital Plus
Codec ID : A_EAC3
Duration : 1 h 51 min
Bit rate mode : Constant
Bit rate : 640 kb/s
Channel(s) : 6 channels
Channel layout : L R C LFE Ls Rs
Sampling rate : 48.0 kHz
Frame rate : 31.250 FPS (1536 SPF)
Compression mode : Lossy
Stream size : 509 MiB (3%)
Language : English
Service kind : Complete Main
Default : No
Forced : No


Text #1
ID : 4
Format : UTF-8
Codec ID : S_TEXT/UTF8
Codec ID/Info : UTF-8 Plain Text
Duration : 1 h 49 min
Bit rate : 55 b/s
Count of elements : 1663
Stream size : 44.8 KiB (0%)
Title : SDH
Language : English
Default : Yes
Forced : No


Text #2
ID : 5
Format : PGS
Muxing mode : zlib
Codec ID : S_HDMV/PGS
Codec ID/Info : Picture based subtitle format used on BDs/HD-DVDs
Duration : 1 h 42 min
Bit rate : 37.4 kb/s
Count of elements : 2830
Stream size : 27.5 MiB (0%)
Title : English-PGS
Language : English
Default : No
Forced : No


Text #3
ID : 6
Format : PGS
Muxing mode : zlib
Codec ID : S_HDMV/PGS
Codec ID/Info : Picture based subtitle format used on BDs/HD-DVDs
Duration : 1 h 50 min
Bit rate : 30.3 kb/s
Count of elements : 2592
Stream size : 23.9 MiB (0%)
Title : Spanish-PGS
Language : Spanish
Default : No
Forced : No


Text #4
ID : 7
Format : PGS
Muxing mode : zlib
Codec ID : S_HDMV/PGS
Codec ID/Info : Picture based subtitle format used on BDs/HD-DVDs
Duration : 1 h 50 min
Bit rate : 31.7 kb/s
Count of elements : 2590
Stream size : 25.1 MiB (0%)
Title : French-PGS
Language : French
Default : No
Forced : No


Menu
00:00:00.000 : en:Chapter 01
00:05:41.132 : en:Chapter 02
00:10:37.803 : en:Chapter 03
00:15:44.026 : en:Chapter 04
00:20:05.829 : en:Chapter 05
00:28:20.699 : en:Chapter 06
00:35:27.208 : en:Chapter 07
00:41:05.045 : en:Chapter 08
00:49:15.160 : en:Chapter 09
00:54:43.488 : en:Chapter 10
00:59:56.843 : en:Chapter 11
01:07:12.111 : en:Chapter 12
01:12:12.745 : en:Chapter 13
01:17:47.162 : en:Chapter 14
01:21:20.792 : en:Chapter 15
01:27:25.031 : en:Chapter 16
01:30:56.909 : en:Chapter 17
01:38:49.465 : en:Chapter 18
01:42:31.520 : en:Chapter 19
01:44:27.594 : en:Chapter 20


蓝光高清网提示您 点击下方附件名称 即可开始下载


女王与知己(台) / 维多利亚女王:日不落奇缘(港)/维多利亚与阿卜杜勒4k.Victoria.and.Abdul.2017.2160p.AMZN.WEB-DL.x265.10bit.HDR10Plus.DTS-HD.MA.5.1-4k电影下载

维多利亚与阿卜杜勒4k.Victoria.and.Abdul.2017.2160p.AMZN.WEB-DL.x265.10bit.HDR10Plus.DTS-HD.MA.5.1【4k HDR10 14.41 GB】

维多利亚与阿卜杜勒4k.Victoria.and.Abdul.2017.2160p.AMZN.WEB-DL.x265.10bit.HDR10Plus.DTS-HD.MA.5.1-NOGRP.torrent ( 18.71 KB )



维多利亚与阿卜杜勒中文字幕下载
https://www.4kii.com/thread-112112-1-1.html



加入蓝光高清网VIP会员  无限制下载本站所有资源---点这里

资源下载、资源播放、字幕使用、无法下载等常见问题---点这里
回复

使用道具 举报

全部回复2 显示全部楼层
gdlmxia 发表于 前天 11:57 | 显示全部楼层
太好啦&萬分感謝版主的無私發佈分享%
回复 支持 反对

使用道具 举报

PCHUN 发表于 20 小时前 | 显示全部楼层
Thanks for sharing
回复 支持 反对

使用道具 举报

发表回复

您需要登录后才可以回帖 登录 | 立即注册

本版积分规则

联系客服 关注微信 下载APP 返回顶部 返回列表