蓝光高清网

搜索
开启左侧

星际旅行8:第一类接触 Star.Trek.First.Contact.1996.2160p.PMTP.WEB-DL.x265.10bit.HDR10Plus.DTS-HD.MA.TrueHD.5.1-NOGRP 17.38GB

蓝鸟 发表于 前天 09:43 | 显示全部楼层 |阅读模式
星际旅行8:第一类接触 豆瓣评分: 7.9分
上映时间:1996年
类型:动作 惊悚 科幻 冒险 
地区:美国 
导演:乔纳森·弗雷克斯
主演:帕特里克·斯图尔特 / 乔纳森·弗雷克斯 / 布伦特·斯皮内 / 莱瓦尔·伯顿 / 迈克尔·多恩
画质标准:4K SDR  封装音轨:DTS-HD.MA 5.1 Dolby TrueHD 5.1 
本帖最后由 蓝鸟 于 2022-6-23 09:46 编辑

简  介

  本片是以地球人与瓦肯人的“第一类接触”事件为背景,将重心放在《星际迷航之下一代》电视系列剧中的大敌『博格人』。                                    
       企业号正在宇宙空间做例行巡航时,舰长皮卡特接到密电,称博格人已联合其他星系的力量,准备向地球发起攻击。由于舰长皮卡特曾受敌方俘虏并同化,星际舰队对其不很信任,故没有派其出战。皮卡特不顾命令,仍然参与战斗,之后企业号跟随博格人的时间漩涡回到21世纪,以阻挡博格人试图改变人类的外星发展史达到征服地球的企图。

影片参数
Video
ID                                       : 1
Format                                   : HEVC
Format/Info                              : High Efficiency Video Coding
Format profile                           : Main [email protected]@Main
HDR format                               : SMPTE ST 2094 App 4, Version 1, HDR10+ Profile B compatible
Codec ID                                 : V_MPEGH/ISO/HEVC
Duration                                 : 1 h 50 min
Bit rate                                 : 14.0 Mb/s
Width                                    : 3 840 pixels
Height                                   : 2 160 pixels
Display aspect ratio                     : 16:9
Frame rate mode                          : Constant
Frame rate                               : 23.976 (24000/1001/189150) FPS
Color space                              : YUV
Chroma subsampling                       : 4:2:0 (Type 2)
Bit depth                                : 10 bits
Bits/(Pixel*Frame)                       : 0.070
Stream size                              : 10.8 GiB (62%)
Language                                 : English
Default                                  : Yes
Forced                                   : No
Color range                              : Limited
Color primaries                          : BT.2020
Transfer characteristics                 : PQ
Matrix coefficients                      : BT.2020 non-constant
Mastering display color primaries        : Display P3
Mastering display luminance              : min: 0.0050 cd/m2, max: 4000 cd/m2


Audio #1
ID                                       : 2
Format                                   : MLP FBA
Format/Info                              : Meridian Lossless Packing FBA
Commercial name                          : Dolby TrueHD
Codec ID                                 : A_TRUEHD
Duration                                 : 1 h 50 min
Bit rate mode                            : Variable
Bit rate                                 : 3 898 kb/s
Maximum bit rate                         : 5 340 kb/s
Channel(s)                               : 6 channels
Channel layout                           : L R C LFE Ls Rs
Sampling rate                            : 48.0 kHz
Frame rate                               : 1 200.000 FPS (40 SPF)
Compression mode                         : Lossless
Stream size                              : 3.01 GiB (17%)
Language                                 : English
Default                                  : Yes
Forced                                   : No


Audio #2
ID                                       : 3
Format                                   : DTS XLL
Format/Info                              : Digital Theater Systems
Commercial name                          : DTS-HD Master Audio
Codec ID                                 : A_DTS
Duration                                 : 1 h 50 min
Bit rate mode                            : Variable
Bit rate                                 : 4 251 kb/s
Channel(s)                               : 6 channels
Channel layout                           : C L R Ls Rs LFE
Sampling rate                            : 48.0 kHz
Frame rate                               : 93.750 FPS (512 SPF)
Bit depth                                : 24 bits
Compression mode                         : Lossless
Delay relative to video                  : 6 ms
Stream size                              : 3.29 GiB (19%)
Language                                 : English
Default                                  : No
Forced                                   : No


Audio #3
ID                                       : 4
Format                                   : E-AC-3
Format/Info                              : Enhanced AC-3
Commercial name                          : Dolby Digital Plus
Codec ID                                 : A_EAC3
Duration                                 : 1 h 50 min
Bit rate mode                            : Constant
Bit rate                                 : 192 kb/s
Channel(s)                               : 6 channels
Channel layout                           : L R C LFE Ls Rs
Sampling rate                            : 48.0 kHz
Frame rate                               : 31.250 FPS (1536 SPF)
Compression mode                         : Lossy
Stream size                              : 152 MiB (1%)
Language                                 : English
Service kind                             : Complete Main
Default                                  : No
Forced                                   : No


Text #1
ID                                       : 5
Format                                   : UTF-8
Codec ID                                 : S_TEXT/UTF8
Codec ID/Info                            : UTF-8 Plain Text
Duration                                 : 1 h 44 min
Bit rate                                 : 54 b/s
Count of elements                        : 1305
Stream size                              : 42.1 KiB (0%)
Language                                 : English
Default                                  : No
Forced                                   : No


Text #2
ID                                       : 6
Format                                   : PGS
Muxing mode                              : zlib
Codec ID                                 : S_HDMV/PGS
Codec ID/Info                            : Picture based subtitle format used on BDs/HD-DVDs
Duration                                 : 1 h 47 min
Bit rate                                 : 14.7 kb/s
Count of elements                        : 1468
Stream size                              : 11.2 MiB (0%)
Language                                 : Arabic
Default                                  : No
Forced                                   : No


Text #3
ID                                       : 7
Format                                   : PGS
Muxing mode                              : zlib
Codec ID                                 : S_HDMV/PGS
Codec ID/Info                            : Picture based subtitle format used on BDs/HD-DVDs
Duration                                 : 1 h 47 min
Bit rate                                 : 25.8 kb/s
Count of elements                        : 1594
Stream size                              : 19.8 MiB (0%)
Language                                 : Danish
Default                                  : No
Forced                                   : No


Text #4
ID                                       : 8
Format                                   : PGS
Muxing mode                              : zlib
Codec ID                                 : S_HDMV/PGS
Codec ID/Info                            : Picture based subtitle format used on BDs/HD-DVDs
Duration                                 : 1 h 50 min
Bit rate                                 : 30.3 kb/s
Count of elements                        : 2187
Stream size                              : 23.9 MiB (0%)
Language                                 : German
Default                                  : No
Forced                                   : No


Text #5
ID                                       : 9
Format                                   : PGS
Muxing mode                              : zlib
Codec ID                                 : S_HDMV/PGS
Codec ID/Info                            : Picture based subtitle format used on BDs/HD-DVDs
Duration                                 : 1 h 40 min
Bit rate                                 : 33.6 kb/s
Count of elements                        : 2070
Stream size                              : 24.3 MiB (0%)
Language                                 : English
Default                                  : No
Forced                                   : No


Text #6
ID                                       : 10
Format                                   : PGS
Muxing mode                              : zlib
Codec ID                                 : S_HDMV/PGS
Codec ID/Info                            : Picture based subtitle format used on BDs/HD-DVDs
Duration                                 : 1 h 50 min
Bit rate                                 : 32.7 kb/s
Count of elements                        : 2314
Stream size                              : 25.7 MiB (0%)
Language                                 : Spanish
Default                                  : No
Forced                                   : No


Text #7
ID                                       : 11
Format                                   : PGS
Muxing mode                              : zlib
Codec ID                                 : S_HDMV/PGS
Codec ID/Info                            : Picture based subtitle format used on BDs/HD-DVDs
Duration                                 : 1 h 50 min
Bit rate                                 : 24.1 kb/s
Count of elements                        : 2228
Stream size                              : 19.0 MiB (0%)
Language                                 : French
Default                                  : No
Forced                                   : No


Text #8
ID                                       : 12
Format                                   : PGS
Muxing mode                              : zlib
Codec ID                                 : S_HDMV/PGS
Codec ID/Info                            : Picture based subtitle format used on BDs/HD-DVDs
Duration                                 : 1 h 47 min
Bit rate                                 : 25.9 kb/s
Count of elements                        : 1466
Stream size                              : 19.8 MiB (0%)
Language                                 : Croatian
Default                                  : No
Forced                                   : No


Text #9
ID                                       : 13
Format                                   : PGS
Muxing mode                              : zlib
Codec ID                                 : S_HDMV/PGS
Codec ID/Info                            : Picture based subtitle format used on BDs/HD-DVDs
Duration                                 : 1 h 50 min
Bit rate                                 : 31.7 kb/s
Count of elements                        : 2306
Stream size                              : 25.0 MiB (0%)
Language                                 : Italian
Default                                  : No
Forced                                   : No


Text #10
ID                                       : 14
Format                                   : PGS
Muxing mode                              : zlib
Codec ID                                 : S_HDMV/PGS
Codec ID/Info                            : Picture based subtitle format used on BDs/HD-DVDs
Duration                                 : 1 h 47 min
Bit rate                                 : 22.9 kb/s
Count of elements                        : 1664
Stream size                              : 17.6 MiB (0%)
Language                                 : Dutch
Default                                  : No
Forced                                   : No


Text #11
ID                                       : 15
Format                                   : PGS
Muxing mode                              : zlib
Codec ID                                 : S_HDMV/PGS
Codec ID/Info                            : Picture based subtitle format used on BDs/HD-DVDs
Duration                                 : 1 h 47 min
Bit rate                                 : 24.6 kb/s
Count of elements                        : 1543
Stream size                              : 18.8 MiB (0%)
Language                                 : Norwegian
Default                                  : No
Forced                                   : No


Text #12
ID                                       : 16
Format                                   : PGS
Muxing mode                              : zlib
Codec ID                                 : S_HDMV/PGS
Codec ID/Info                            : Picture based subtitle format used on BDs/HD-DVDs
Duration                                 : 1 h 50 min
Bit rate                                 : 29.4 kb/s
Count of elements                        : 2180
Stream size                              : 23.1 MiB (0%)
Language                                 : Portuguese
Default                                  : No
Forced                                   : No


Text #13
ID                                       : 17
Format                                   : PGS
Muxing mode                              : zlib
Codec ID                                 : S_HDMV/PGS
Codec ID/Info                            : Picture based subtitle format used on BDs/HD-DVDs
Duration                                 : 1 h 47 min
Bit rate                                 : 24.8 kb/s
Count of elements                        : 1456
Stream size                              : 19.0 MiB (0%)
Language                                 : Finnish
Default                                  : No
Forced                                   : No


Text #14
ID                                       : 18
Format                                   : PGS
Muxing mode                              : zlib
Codec ID                                 : S_HDMV/PGS
Codec ID/Info                            : Picture based subtitle format used on BDs/HD-DVDs
Duration                                 : 1 h 47 min
Bit rate                                 : 23.8 kb/s
Count of elements                        : 1554
Stream size                              : 18.2 MiB (0%)
Language                                 : Swedish
Default                                  : No
Forced                                   : No

蓝光高清网提示您 点击下方附件名称 即可开始下载

星际旅行8:第一类接触 Star.Trek.First.Contact.1996.2160p.PMTP.WEB-DL.x265.10bit.HDR10Plus.DTS-HD.MA.TrueHD.5.1-NOGRP 17.38GB

Star.Trek.First.Contact.1996.2160p.PMTP.WEB-DL.x265.10bit.HDR10Plus.DTS-HD.MA.Tr.torrent ( 22.44 KB )



星际旅行8:第一类接触 中文字幕下载
https://www.4kii.com/thread-112122-1-1.html

星际旅行系列4k  UHD 合辑https://www.4kii.com/topic-xjlx.html

加入蓝光高清网VIP会员  无限制下载本站所有资源---点这里

资源下载、资源播放、字幕使用、无法下载等常见问题---点这里
回复

使用道具 举报

全部回复2 显示全部楼层
gdlmxia 发表于 昨天 11:10 | 显示全部楼层
太好啦&萬分感謝版主的無私發佈分享%
回复 支持 反对

使用道具 举报

再会未来 发表于 昨天 19:48 | 显示全部楼层
111111111111111111111111
回复 支持 反对

使用道具 举报

发表回复

您需要登录后才可以回帖 登录 | 立即注册

本版积分规则

联系客服 关注微信 下载APP 返回顶部 返回列表