蓝光高清网

搜索
开启左侧

[剧情] 永远的卡拉斯 Callas.Forever.2002.1080p.BluRay.x264.DTS-FGT 9.86GB

蓝鸟 发表于 前天 10:43 | 显示全部楼层 |阅读模式

永远的卡拉斯 Callas.Forever.2002.1080p.BluRay.x264.DTS-FGT 9.86GB

永远的卡拉斯 Callas.Forever.2002.1080p.BluRay.x264.DTS-FGT 9.86GB


标  题 永远的卡拉斯
译  名 永远的卡拉丝
片  名 Callas Forever
年  代 2002
产  地 意大利 / 法国 / 西班牙 / 英国 / 罗马尼亚
类  别 剧情
语  言 英语 / 法语 / 意大利语
上映日期 2002-09-16
IMDb评分 6.4/10 (2267人评价)
豆瓣评分 7.5/10 (487人评价)
片  长 France: 108 分钟
导  演 佛朗哥·泽菲雷里 Franco Zeffirelli
编  剧 佛朗哥·泽菲雷里 Franco Zeffirelli
       马丁·谢尔曼 Martin Sherman
演  员 芬妮·阿尔丹 Fanny Ardant
       杰瑞米·艾恩斯 Jeremy Irons
       琼·普莱怀特 Joan Plowright
       杰伊·罗丹 Jay Rodan
       加布埃尔·加科 Gabriel Garko
       加布里埃尔·斯巴修 Gabriel Spahiu
       小弗洛林·皮尔斯齐 Florin Piersic Jr.
       史蒂芬·比灵顿 Stephen Billington
       Justino Díaz Justino Díaz
       曼纽尔·德·巴拉斯 Manuel de Blas
       乔凡尼·斯塔比利尼 Giovanni Stabilini
       马尔科·西蒙兹 Marco Chimenz
       Francisco Ramos Francisco Ramos
       里卡尔多·托季 Riccardo Tozzi
       Fabio Conversi Fabio Conversi
       Andrei Boncea Andrei Boncea
       Clive Parsons Clive Parsons
       Ricardo García Arrojo Ricardo García Arrojo
       Alessio Vlad Alessio Vlad
       Ennio Guarnieri Ennio Guarnieri
       Sean Barton Sean Barton
       Ilene Starger Ilene Starger
       安娜·安尼 Anna Anni
       卡尔·拉格菲尔德 Karl Lagerfeld
       阿尔伯托·斯皮亚齐 Alberto Spiazzi
       Alessandro Lai Alessandro Lai
       毛里齐奥·纳迪 Maurizio Nardi
       Alfredo Marazzi Alfredo Marazzi
       阿尔多·锡格纳蒂 Aldo Signoretti
       Massimiliano Duranti Massimiliano Duranti
       乔治奥·格雷戈里尼 Giorgio Gregorini
       斯蒂凡诺·塞卡雷利 Stefano Ceccarelli
       何塞·奎特格拉斯 José Quetglás
       Gilles Cannatella Gilles Cannatella
       因蒂·卡博尼 Inti Carboni
       法布里季奥·皮斯通 Fabrizio Pistone

简  介

卡拉斯(芬妮·阿尔丹 Fanny Ardant 饰)曾是红极一时的歌唱家,无数人沉迷在她美妙的歌喉中无法自拔。随着时间的推移,卡拉斯的声线渐渐不那么清脆了,经历了一场可以用车祸现场来形容的演唱会后,唱歌对于她来说开始变成了一种折磨。丈夫奥纳西斯的去世对于卡拉斯目前的状况来说无异于雪上加霜,沉浸与悲痛之中的她将自己关在房中,过着离群索居的生活。                                    
                                在制作人的劝说下,卡拉斯决定重出江湖,只是这一次,他们要玩一些小小的花招,以便让卡拉斯的歌喉重回巅峰时期。虽然对于这一行为的道德性深感怀疑,但卡拉斯对那场演唱会实在是无法释怀,心动的她决定将自己最喜欢,但从未完成唱完了歌剧《卡门》再度搬上舞台。


影片参数
  1. Video
  2. ID                                       : 1
  3. Format                                   : AVC
  4. Format/Info                              : Advanced Video Codec
  5. Format profile                           : [email protected]
  6. Format settings                          : CABAC / 4 Ref Frames
  7. Format settings, CABAC                   : Yes
  8. Format settings, Reference frames        : 4 frames
  9. Codec ID                                 : V_MPEG4/ISO/AVC
  10. Duration                                 : 1 h 48 min
  11. Bit rate                                 : 11.5 Mb/s
  12. Width                                    : 1 920 pixels
  13. Height                                   : 1 080 pixels
  14. Display aspect ratio                     : 16:9
  15. Frame rate mode                          : Constant
  16. Frame rate                               : 24.000 FPS
  17. Color space                              : YUV
  18. Chroma subsampling                       : 4:2:0
  19. Bit depth                                : 8 bits
  20. Scan type                                : Progressive
  21. Bits/(Pixel*Frame)                       : 0.231
  22. Stream size                              : 8.71 GiB (88%)
  23. Writing library                          : x264 core 148 r2795M aaa9aa8
  24. Encoding settings                        : cabac=1 / ref=4 / deblock=1:-2:-2 / analyse=0x3:0x113 / me=umh / subme=9 / psy=1 / psy_rd=1.00:0.15 / mixed_ref=1 / me_range=16 / chroma_me=1 / trellis=2 / 8x8dct=1 / cqm=0 / deadzone=21,11 / fast_pskip=1 / chroma_qp_offset=-3 / threads=24 / lookahead_threads=3 / sliced_threads=0 / nr=0 / decimate=1 / interlaced=0 / bluray_compat=0 / constrained_intra=0 / bframes=3 / b_pyramid=2 / b_adapt=1 / b_bias=0 / direct=3 / weightb=1 / open_gop=0 / weightp=2 / keyint=250 / keyint_min=25 / scenecut=40 / intra_refresh=0 / rc_lookahead=50 / rc=2pass / mbtree=1 / bitrate=11500 / ratetol=1.0 / qcomp=0.60 / qpmin=0 / qpmax=69 / qpstep=4 / cplxblur=20.0 / qblur=0.5 / vbv_maxrate=31250 / vbv_bufsize=31250 / nal_hrd=none / filler=0 / ip_ratio=1.40 / aq=1:1.00
  25. Language                                 : English
  26. Default                                  : Yes
  27. Forced                                   : No
  28. Audio
  29. ID                                       : 2
  30. Format                                   : DTS
  31. Format/Info                              : Digital Theater Systems
  32. Codec ID                                 : A_DTS
  33. Duration                                 : 1 h 48 min
  34. Bit rate mode                            : Constant
  35. Bit rate                                 : 1 509 kb/s
  36. Channel(s)                               : 2 channels
  37. Channel layout                           : L R
  38. Sampling rate                            : 48.0 kHz
  39. Frame rate                               : 93.750 FPS (512 SPF)
  40. Bit depth                                : 16 bits
  41. Compression mode                         : Lossy
  42. Stream size                              : 1.14 GiB (12%)
  43. Language                                 : English
  44. Default                                  : Yes
  45. Forced                                   : No
  46. Text #1
  47. ID                                       : 3
  48. Format                                   : UTF-8
  49. Codec ID                                 : S_TEXT/UTF8
  50. Codec ID/Info                            : UTF-8 Plain Text
  51. Duration                                 : 1 h 43 min
  52. Bit rate                                 : 46 b/s
  53. Count of elements                        : 1092
  54. Stream size                              : 35.0 KiB (0%)
  55. Language                                 : English
  56. Default                                  : Yes
  57. Forced                                   : No
  58. Text #2
  59. ID                                       : 4
  60. Format                                   : UTF-8
  61. Codec ID                                 : S_TEXT/UTF8
  62. Codec ID/Info                            : UTF-8 Plain Text
  63. Duration                                 : 1 h 43 min
  64. Bit rate                                 : 46 b/s
  65. Count of elements                        : 1075
  66. Stream size                              : 35.4 KiB (0%)
  67. Language                                 : French
  68. Default                                  : No
  69. Forced                                   : No
  70. Text #3
  71. ID                                       : 5
  72. Format                                   : UTF-8
  73. Codec ID                                 : S_TEXT/UTF8
  74. Codec ID/Info                            : UTF-8 Plain Text
  75. Duration                                 : 1 h 41 min
  76. Bit rate                                 : 44 b/s
  77. Count of elements                        : 1207
  78. Stream size                              : 33.0 KiB (0%)
  79. Language                                 : Spanish
  80. Default                                  : No
  81. Forced                                   : No
  82. Menu
  83. 00:00:00.000                             : en:Chapter 01
  84. 00:08:35.000                             : en:Chapter 02
  85. 00:19:27.500                             : en:Chapter 03
  86. 00:25:15.000                             : en:Chapter 04
  87. 00:36:57.000                             : en:Chapter 05
  88. 00:44:22.750                             : en:Chapter 06
  89. 00:53:45.000                             : en:Chapter 07
  90. 01:02:39.000                             : en:Chapter 08
  91. 01:11:26.000                             : en:Chapter 09
  92. 01:20:24.000                             : en:Chapter 10
  93. 01:28:32.500                             : en:Chapter 11
  94. 01:40:01.125                             : en:Chapter 12
  95. 01:45:04.000                             : en:Chapter 13
复制代码

永远的卡拉斯 Callas.Forever.2002.1080p.BluRay.x264.DTS-FGT 9.86GB

永远的卡拉斯 Callas.Forever.2002.1080p.BluRay.x264.DTS-FGT 9.86GB

永远的卡拉斯 Callas.Forever.2002.1080p.BluRay.x264.DTS-FGT 9.86GB

永远的卡拉斯 Callas.Forever.2002.1080p.BluRay.x264.DTS-FGT 9.86GB



蓝光高清网提示您 点击下方附件即可下载

永远的卡拉斯 Callas.Forever.2002.1080p.BluRay.x264.DTS-FGT 9.86GB

Callas.Forever.2002.1080p.BluRay.x264.DTS-FGT.torrent ( 25.25 KB )

加入蓝光高清网VIP会员  无限制下载本站所有资源---点这里

资源下载、资源播放、字幕使用、无法下载等常见问题---点这里
回复

使用道具 举报

全部回复0 显示全部楼层

发表回复

您需要登录后才可以回帖 登录 | 立即注册

本版积分规则

联系客服 关注微信 下载APP 返回顶部 返回列表