蓝光高清网

搜索
开启左侧

[剧情] 求救信号 Mayday.2021.1080p.BluRay.x264-UNVEiL 11.52GB

蓝鸟 发表于 前天 10:46 | 显示全部楼层 |阅读模式

求救信号 Mayday.2021.1080p.BluRay.x264-UNVEiL 11.52GB

求救信号 Mayday.2021.1080p.BluRay.x264-UNVEiL 11.52GB


标  题 求救信号
片  名 Mayday
年  代 2021
产  地 美国
类  别 剧情 / 奇幻
语  言 英语
上映日期 2021-01-31(圣丹斯电影节) / 2021-10-01(美国)
IMDb评分 4.2/10 (654人评价)
豆瓣评分 6.4/10 (77人评价)
导  演 凯伦·西诺雷 Karen Cinorre
编  剧 凯伦·西诺雷 Karen Cinorre
演  员 朱丽叶特·刘易斯 Juliette Lewis
       格蕾丝·范帕滕 Grace Van Patten
       米娅·高斯 Mia Goth
       斯蒂芬妮·索科琳斯基 Stéphanie Sokolinski
       Havana Rose Liu Havana Rose Liu
标  签 奇幻 / 剧情 / 2021 / 文艺 / 女性 / 美国 / 女权 / 鹿特丹

简  介

朱丽叶特·刘易斯、格蕾丝·范·帕滕、米娅·高斯将出演以女性为主导的奇幻动作片[求救信号](Mayday,暂译)。本片是导演兼编剧Karen Cinorre的处女作,目前正在拍摄中。故事讲述了一个名叫安娜(范·帕滕饰)的年轻女子被送到了一个梦幻而危险的地方,在那里她加入了一群女兵,在崎岖的海岸上进行着一场永无休止的战争。虽然她在这个令人振奋的世界中找到了力量,但她意识到她并不是他们希望她成为的杀手,所以她必须使用她的新生力量来试图战胜她的生活。


影片参数
  1. Video
  2. ID                                       : 1
  3. Format                                   : AVC
  4. Format/Info                              : Advanced Video Codec
  5. Format profile                           : [email protected]
  6. Format settings                          : CABAC / 5 Ref Frames
  7. Format settings, CABAC                   : Yes
  8. Format settings, Reference frames        : 5 frames
  9. Codec ID                                 : V_MPEG4/ISO/AVC
  10. Duration                                 : 1 h 39 min
  11. Bit rate                                 : 14.7 Mb/s
  12. Width                                    : 1 920 pixels
  13. Height                                   : 804 pixels
  14. Display aspect ratio                     : 2.40:1
  15. Frame rate mode                          : Constant
  16. Frame rate                               : 23.976 (24000/1001/189150) FPS
  17. Color space                              : YUV
  18. Chroma subsampling                       : 4:2:0
  19. Bit depth                                : 8 bits
  20. Scan type                                : Progressive
  21. Bits/(Pixel*Frame)                       : 0.398
  22. Stream size                              : 10.3 GiB (89%)
  23. Writing library                          : x264 core 164 r3094 bfc87b7
  24. Encoding settings                        : cabac=1 / ref=5 / deblock=1:-3:-3 / analyse=0x3:0x133 / me=umh / subme=9 / psy=1 / psy_rd=1.00:0.00 / mixed_ref=1 / me_range=16 / chroma_me=1 / trellis=2 / 8x8dct=1 / cqm=0 / deadzone=21,11 / fast_pskip=0 / chroma_qp_offset=-2 / threads=24 / lookahead_threads=2 / sliced_threads=0 / nr=0 / decimate=1 / interlaced=0 / bluray_compat=0 / constrained_intra=0 / bframes=3 / b_pyramid=2 / b_adapt=2 / b_bias=0 / direct=3 / weightb=1 / open_gop=0 / weightp=2 / keyint=250 / keyint_min=23 / scenecut=40 / intra_refresh=0 / rc_lookahead=60 / rc=crf / mbtree=1 / crf=17.3 / qcomp=0.60 / qpmin=0 / qpmax=69 / qpstep=4 / ip_ratio=1.40 / aq=1:1.00
  25. Language                                 : English
  26. Default                                  : Yes
  27. Forced                                   : No

  28. Audio
  29. ID                                       : 2
  30. Format                                   : DTS XLL
  31. Format/Info                              : Digital Theater Systems
  32. Commercial name                          : DTS-HD Master Audio
  33. Codec ID                                 : A_DTS
  34. Duration                                 : 1 h 39 min
  35. Bit rate mode                            : Variable
  36. Bit rate                                 : 1 820 kb/s
  37. Channel(s)                               : 6 channels
  38. Channel layout                           : C L R Ls Rs LFE
  39. Sampling rate                            : 48.0 kHz
  40. Frame rate                               : 93.750 FPS (512 SPF)
  41. Bit depth                                : 16 bits
  42. Compression mode                         : Lossless
  43. Stream size                              : 1.27 GiB (11%)
  44. Language                                 : English
  45. Default                                  : Yes
  46. Forced                                   : No

  47. Text
  48. ID                                       : 3
  49. Format                                   : PGS
  50. Muxing mode                              : zlib
  51. Codec ID                                 : S_HDMV/PGS
  52. Codec ID/Info                            : Picture based subtitle format used on BDs/HD-DVDs
  53. Duration                                 : 1 h 31 min
  54. Bit rate                                 : 19.8 kb/s
  55. Count of elements                        : 1854
  56. Stream size                              : 12.9 MiB (0%)
  57. Language                                 : German
  58. Default                                  : No
  59. Forced                                   : No

  60. Menu
  61. 00:00:00.000                             : en:Chapter 01
  62. 00:10:55.488                             : en:Chapter 02
  63. 00:19:38.761                             : en:Chapter 03
  64. 00:28:26.288                             : en:Chapter 04
  65. 00:38:30.725                             : en:Chapter 05
  66. 00:45:47.620                             : en:Chapter 06
  67. 00:54:36.899                             : en:Chapter 07
  68. 01:02:10.602                             : en:Chapter 08
  69. 01:08:57.592                             : en:Chapter 09
  70. 01:18:04.805                             : en:Chapter 10
  71. 01:25:00.137                             : en:Chapter 11
  72. 01:33:36.361                             : en:Chapter 12
复制代码

求救信号 Mayday.2021.1080p.BluRay.x264-UNVEiL 11.52GB

求救信号 Mayday.2021.1080p.BluRay.x264-UNVEiL 11.52GB



蓝光高清网提示您 点击下方附件即可下载

求救信号 Mayday.2021.1080p.BluRay.x264-UNVEiL 11.52GB

Mayday.2021.1080p.BluRay.x264-UNVEiL.torrent ( 15.11 KB )

加入蓝光高清网VIP会员  无限制下载本站所有资源---点这里

资源下载、资源播放、字幕使用、无法下载等常见问题---点这里
回复

使用道具 举报

全部回复0 显示全部楼层

发表回复

您需要登录后才可以回帖 登录 | 立即注册

本版积分规则

联系客服 关注微信 下载APP 返回顶部 返回列表