蓝光高清网

搜索
开启左侧

[剧情] 杀手的肖像 Henry.Portrait.of.a.Serial.Killer.1986.WS.PROPER.1080p.BluRay.x264-OLDTiME 9.81GB

蓝鸟 发表于 前天 10:46 | 显示全部楼层 |阅读模式

杀手的肖像 Henry.Portrait.of.a.Serial.Killer.1986.WS.PROPER.1080p.BluRay.x264-OLDTiME 9.81GB

杀手的肖像 Henry.Portrait.of.a.Serial.Killer.1986.WS.PROPER.1080p.BluRay.x264-OLDTiME 9.81GB


标  题 杀手的肖像
译  名 一个连环杀手的肖像 / 亨瑞
片  名 Henry: Portrait of a Serial Killer
年  代 1986
产  地 美国
类  别 剧情 / 传记 / 犯罪
语  言 英语
上映日期 1986-09-24
豆瓣评分 7.4/10 (1401人评价)
片  长 83 分钟
导  演 约翰·麦克诺顿 John McNaughton
编  剧 理查德·法尔 Richard Fire
       约翰·麦克诺顿 John McNaughton
演  员 迈克尔·鲁克 Michael Rooker
       埃里克·杨 Eric Young
       Erzsebet Sziky Erzsebet Sziky
       汤姆·托尔斯 Tom Towles
       Lily Monkus Lily Monkus
       Tracy Arnold Tracy Arnold
       约翰·麦克诺顿 John McNaughton
       Steven A. Jones Steven A. Jones
       Lisa Dedmond Lisa Dedmond
       Steven A. Jones Steven A. Jones
       Elena Maganini Elena Maganini

简  介

HENRY热中于杀人,他把杀人当成一种艺术,在相同的时间用不同的方法杀死不同的人。他把房子租给了一个叫OTIS的人,当他的姐姐来访的时候,HENRY的杀人冲动又开始萌动了。。。。。                                       
                                    这部片子是美国黑色电影的代表作,在80年代末曾多次获奖,电影的表现手法及剪辑都相当精彩。                                       
                                    谓“黑色电影”?它是否一种类型,运动或潮流?至今仍无定论,有的学者认为“黑色电影”是一种类似西部片,音乐喜剧片,恐怖片的的片种,是一种有着深厚历史与社会背景下产生的1940-1960年间的电影潮流或运动,有的甚至认为“黑色电影”必须是黑白片,60年后便再也没有“黑色电影”了。但我个人认为“黑色电影”不是任何一种类型片,虽然其称号来自30,40年代的强盗片/犯罪片与侦探片。那“黑色电影”到底是什么呢?我个人认为,它是一种含有“黑暗或黑色”情绪与心理色调的特质电影,所以它与一些类型片如强...


影片参数
  1. Video
  2. ID                                       : 1
  3. Format                                   : AVC
  4. Format/Info                              : Advanced Video Codec
  5. Format profile                           : [email protected]
  6. Format settings                          : CABAC / 4 Ref Frames
  7. Format settings, CABAC                   : Yes
  8. Format settings, Reference frames        : 4 frames
  9. Codec ID                                 : V_MPEG4/ISO/AVC
  10. Duration                                 : 1 h 22 min
  11. Bit rate                                 : 15.1 Mb/s
  12. Width                                    : 1 920 pixels
  13. Height                                   : 1 080 pixels
  14. Display aspect ratio                     : 16:9
  15. Frame rate mode                          : Constant
  16. Frame rate                               : 23.976 (24000/1001/189150) FPS
  17. Color space                              : YUV
  18. Chroma subsampling                       : 4:2:0
  19. Bit depth                                : 8 bits
  20. Scan type                                : Progressive
  21. Bits/(Pixel*Frame)                       : 0.304
  22. Stream size                              : 8.69 GiB (89%)
  23. Writing library                          : x264 core 164 r3094 bfc87b7
  24. Encoding settings                        : cabac=1 / ref=4 / deblock=1:-3:-3 / analyse=0x3:0x133 / me=umh / subme=9 / psy=1 / psy_rd=1.00:0.00 / mixed_ref=1 / me_range=16 / chroma_me=1 / trellis=2 / 8x8dct=1 / cqm=0 / deadzone=21,11 / fast_pskip=0 / chroma_qp_offset=-2 / threads=34 / lookahead_threads=2 / sliced_threads=0 / nr=0 / decimate=1 / interlaced=0 / bluray_compat=0 / constrained_intra=0 / bframes=3 / b_pyramid=2 / b_adapt=2 / b_bias=0 / direct=3 / weightb=1 / open_gop=0 / weightp=2 / keyint=250 / keyint_min=23 / scenecut=40 / intra_refresh=0 / rc_lookahead=60 / rc=2pass / mbtree=1 / bitrate=15109 / ratetol=1.0 / qcomp=0.60 / qpmin=0 / qpmax=69 / qpstep=4 / cplxblur=20.0 / qblur=0.5 / ip_ratio=1.40 / aq=1:1.00
  25. Language                                 : English
  26. Default                                  : Yes
  27. Forced                                   : No

  28. Audio #1
  29. ID                                       : 2
  30. Format                                   : DTS XLL
  31. Format/Info                              : Digital Theater Systems
  32. Commercial name                          : DTS-HD Master Audio
  33. Codec ID                                 : A_DTS
  34. Duration                                 : 1 h 22 min
  35. Bit rate mode                            : Variable
  36. Bit rate                                 : 1 759 kb/s
  37. Channel(s)                               : 6 channels
  38. Channel layout                           : C L R Ls Rs LFE
  39. Sampling rate                            : 48.0 kHz
  40. Frame rate                               : 93.750 FPS (512 SPF)
  41. Bit depth                                : 16 bits
  42. Compression mode                         : Lossless
  43. Stream size                              : 1.01 GiB (10%)
  44. Language                                 : English
  45. Default                                  : Yes
  46. Forced                                   : No

  47. Audio #2
  48. ID                                       : 3
  49. Format                                   : AAC LC
  50. Format/Info                              : Advanced Audio Codec Low Complexity
  51. Codec ID                                 : A_AAC-2
  52. Duration                                 : 1 h 22 min
  53. Bit rate                                 : 92.6 kb/s
  54. Channel(s)                               : 2 channels
  55. Channel layout                           : L R
  56. Sampling rate                            : 48.0 kHz
  57. Frame rate                               : 46.875 FPS (1024 SPF)
  58. Compression mode                         : Lossy
  59. Delay relative to video                  : 9 ms
  60. Stream size                              : 54.5 MiB (1%)
  61. Title                                    : commentary
  62. Language                                 : English
  63. Default                                  : No
  64. Forced                                   : No

  65. Text #1
  66. ID                                       : 4
  67. Format                                   : PGS
  68. Muxing mode                              : zlib
  69. Codec ID                                 : S_HDMV/PGS
  70. Codec ID/Info                            : Picture based subtitle format used on BDs/HD-DVDs
  71. Duration                                 : 1 h 15 min
  72. Bit rate                                 : 24.4 kb/s
  73. Count of elements                        : 1912
  74. Stream size                              : 13.2 MiB (0%)
  75. Language                                 : English
  76. Default                                  : No
  77. Forced                                   : No

  78. Text #2
  79. ID                                       : 5
  80. Format                                   : PGS
  81. Muxing mode                              : zlib
  82. Codec ID                                 : S_HDMV/PGS
  83. Codec ID/Info                            : Picture based subtitle format used on BDs/HD-DVDs
  84. Duration                                 : 1 h 20 min
  85. Bit rate                                 : 27.0 kb/s
  86. Count of elements                        : 2266
  87. Stream size                              : 15.6 MiB (0%)
  88. Language                                 : English
  89. Default                                  : No
  90. Forced                                   : No

  91. Text #3
  92. ID                                       : 6
  93. Format                                   : PGS
  94. Muxing mode                              : zlib
  95. Codec ID                                 : S_HDMV/PGS
  96. Codec ID/Info                            : Picture based subtitle format used on BDs/HD-DVDs
  97. Duration                                 : 1 h 22 min
  98. Bit rate                                 : 58.6 kb/s
  99. Count of elements                        : 2148
  100. Stream size                              : 34.4 MiB (0%)
  101. Language                                 : English
  102. Default                                  : No
  103. Forced                                   : No

  104. Text #4
  105. ID                                       : 7
  106. Format                                   : PGS
  107. Muxing mode                              : zlib
  108. Codec ID                                 : S_HDMV/PGS
  109. Codec ID/Info                            : Picture based subtitle format used on BDs/HD-DVDs
  110. Duration                                 : 1 h 15 min
  111. Bit rate                                 : 23.6 kb/s
  112. Count of elements                        : 1348
  113. Stream size                              : 12.8 MiB (0%)
  114. Language                                 : German
  115. Default                                  : No
  116. Forced                                   : No

  117. Text #5
  118. ID                                       : 8
  119. Format                                   : PGS
  120. Muxing mode                              : zlib
  121. Codec ID                                 : S_HDMV/PGS
  122. Codec ID/Info                            : Picture based subtitle format used on BDs/HD-DVDs
  123. Duration                                 : 1 h 20 min
  124. Bit rate                                 : 25.6 kb/s
  125. Count of elements                        : 1660
  126. Stream size                              : 14.8 MiB (0%)
  127. Language                                 : German
  128. Default                                  : No
  129. Forced                                   : No

  130. Text #6
  131. ID                                       : 9
  132. Format                                   : PGS
  133. Muxing mode                              : zlib
  134. Codec ID                                 : S_HDMV/PGS
  135. Codec ID/Info                            : Picture based subtitle format used on BDs/HD-DVDs
  136. Duration                                 : 1 h 22 min
  137. Bit rate                                 : 66.1 kb/s
  138. Count of elements                        : 2211
  139. Stream size                              : 38.9 MiB (0%)
  140. Language                                 : German
  141. Default                                  : No
  142. Forced                                   : No

  143. Menu
  144. 00:00:00.000                             : en:Chapter 01
  145. 00:01:32.384                             : en:Chapter 02
  146. 00:09:01.249                             : en:Chapter 03
  147. 00:13:20.216                             : en:Chapter 04
  148. 00:20:32.731                             : en:Chapter 05
  149. 00:26:51.652                             : en:Chapter 06
  150. 00:32:43.753                             : en:Chapter 07
  151. 00:38:39.609                             : en:Chapter 08
  152. 00:43:33.277                             : en:Chapter 09
  153. 00:47:26.343                             : en:Chapter 10
  154. 00:53:20.030                             : en:Chapter 11
  155. 00:57:24.733                             : en:Chapter 12
  156. 01:04:05.884                             : en:Chapter 13
  157. 01:09:17.653                             : en:Chapter 14
  158. 01:13:16.601                             : en:Chapter 15
  159. 01:18:38.923                             : en:Chapter 16
复制代码

杀手的肖像 Henry.Portrait.of.a.Serial.Killer.1986.WS.PROPER.1080p.BluRay.x264-OLDTiME 9.81GB

杀手的肖像 Henry.Portrait.of.a.Serial.Killer.1986.WS.PROPER.1080p.BluRay.x264-OLDTiME 9.81GB



蓝光高清网提示您 点击下方附件即可下载

杀手的肖像 Henry.Portrait.of.a.Serial.Killer.1986.WS.PROPER.1080p.BluRay.x264-OLDTiME 9.81GB

Henry.Portrait.of.a.Serial.Killer.1986.WS.PROPER.1080p.BluRay.x264-OLDTiME.torrent ( 25.36 KB )

加入蓝光高清网VIP会员  无限制下载本站所有资源---点这里

资源下载、资源播放、字幕使用、无法下载等常见问题---点这里
回复

使用道具 举报

全部回复1 显示全部楼层
wangzhang3手机认证 发表于 前天 12:04 | 显示全部楼层
收藏了,谢谢分享
回复 支持 反对

使用道具 举报

发表回复

您需要登录后才可以回帖 登录 | 立即注册

本版积分规则

联系客服 关注微信 下载APP 返回顶部 返回列表