蓝光高清网

搜索
开启左侧

王者之路 Rise.2022.2160p.DSNP.WEB-DL.x265.10bit.HDR.DDP5.1.Atmos-4k电影下载-13.35 GB

蓝鸟 发表于 2022-6-25 08:50:49 | 显示全部楼层 |阅读模式
王者之路 豆瓣评分: 无评分
上映时间:2022年
类型:剧情 
地区:美国 
导演:Akin Omotoso
主演:未知
画质标准:4K HDR  封装音轨:Dolby TrueHD 5.1 Dolby Atmos 
本帖最后由 蓝鸟 于 2022-6-25 09:18 编辑

简       介

       跟随三位尼日利亚-希腊兄弟,他们从匿名中长大并成为职业篮球的名声。父母 Vera 和 Charles Antetokounmpo 从尼日利亚搬到希腊,希望有机会为家人过上更好的生活。这对夫妇努力工作以养活他们的五个孩子,而从困难的公民制度中驱逐出境的现实威胁着他们孩子的梦想。为了赚到足够的钱来支付账单,一家人齐心协力在雅典向游客出售纪念品。当机会出现时,字母哥兄弟会将他们的挫败感带到公共篮球场。就个人而言,他们很快意识到,虽然他们没有这项运动的经验,但他们天生就是有天赋的球手。在人才经纪人的帮助下,三人决定在 NBA 谋求职业生涯。


影片参数
Rise.2022.2160p.DSNP.WEB-DL.x265.10bit.HDR.DDP5.1.Atmos-4k电影信息
Video
ID : 1
Format : HEVC
Format/Info : High Efficiency Video Coding
Format profile : Main 10@L5@High
HDR format : SMPTE ST 2086, HDR10 compatible
Codec ID : V_MPEGH/ISO/HEVC
Duration : 1 h 51 min
Bit rate : 16.4 Mb/s
Width : 3 840 pixels
Height : 2 160 pixels
Display aspect ratio : 16:9
Frame rate mode : Constant
Frame rate : 24.000 FPS
Color space : YUV
Chroma subsampling : 4:2:0
Bit depth : 10 bits
Bits/(Pixel*Frame) : 0.082
Stream size : 12.7 GiB (96%)
Language : English
Default : Yes
Forced : No
Color range : Limited
Color primaries : BT.2020
Transfer characteristics : PQ
Matrix coefficients : BT.2020 non-constant
Mastering display color primaries : BT.2020
Mastering display luminance : min: 0.0001 cd/m2, max: 1000 cd/m2


Audio
ID : 2
Format : E-AC-3 JOC
Format/Info : Enhanced AC-3 with Joint Object Coding
Commercial name : Dolby Digital Plus with Dolby Atmos
Codec ID : A_EAC3
Duration : 1 h 51 min
Bit rate mode : Constant
Bit rate : 768 kb/s
Channel(s) : 6 channels
Channel layout : L R C LFE Ls Rs
Sampling rate : 48.0 kHz
Frame rate : 31.250 FPS (1536 SPF)
Compression mode : Lossy
Stream size : 611 MiB (4%)
Language : English
Service kind : Complete Main
Default : Yes
Forced : No
Complexity index : 16
Number of dynamic objects : 15
Bed channel count : 1 channel
Bed channel configuration : LFE


Text #1
ID : 3
Format : UTF-8
Codec ID : S_TEXT/UTF8
Codec ID/Info : UTF-8 Plain Text
Duration : 1 h 50 min
Bit rate : 56 b/s
Count of elements : 1445
Stream size : 45.5 KiB (0%)
Title : SDH
Language : English
Default : No
Forced : No


Text #2
ID : 4
Format : UTF-8
Codec ID : S_TEXT/UTF8
Codec ID/Info : UTF-8 Plain Text
Duration : 1 h 50 min
Bit rate : 48 b/s
Count of elements : 1198
Stream size : 39.2 KiB (0%)
Language : English
Default : No
Forced : No






Text #10
ID : 12
Format : UTF-8
Codec ID : S_TEXT/UTF8
Codec ID/Info : UTF-8 Plain Text
Duration : 1 h 50 min
Bit rate : 43 b/s
Count of elements : 1068
Stream size : 35.1 KiB (0%)
Language : French
Default : No
Forced : No


Text #11
ID : 13
Format : UTF-8
Codec ID : S_TEXT/UTF8
Codec ID/Info : UTF-8 Plain Text
Duration : 1 h 50 min
Bit rate : 44 b/s
Count of elements : 1094
Stream size : 36.3 KiB (0%)
Language : Hungarian
Default : No
Forced : No


Text #12
ID : 14
Format : UTF-8
Codec ID : S_TEXT/UTF8
Codec ID/Info : UTF-8 Plain Text
Duration : 1 h 50 min
Bit rate : 42 b/s
Count of elements : 1075
Stream size : 34.1 KiB (0%)
Language : Italian
Default : No
Forced : No


Text #13
ID : 15
Format : UTF-8
Codec ID : S_TEXT/UTF8
Codec ID/Info : UTF-8 Plain Text
Duration : 1 h 50 min
Bit rate : 36 b/s
Count of elements : 1057
Stream size : 29.6 KiB (0%)
Language : Japanese
Default : No
Forced : No


Text #14
ID : 16
Format : UTF-8
Codec ID : S_TEXT/UTF8
Codec ID/Info : UTF-8 Plain Text
Duration : 1 h 50 min
Bit rate : 50 b/s
Count of elements : 1110
Stream size : 40.8 KiB (0%)
Language : Korean
Default : No
Forced : No


Text #15
ID : 17
Format : UTF-8
Codec ID : S_TEXT/UTF8
Codec ID/Info : UTF-8 Plain Text
Duration : 1 h 50 min
Bit rate : 37 b/s
Count of elements : 916
Stream size : 30.5 KiB (0%)
Language : Dutch
Default : No
Forced : No


Text #16
ID : 18
Format : UTF-8
Codec ID : S_TEXT/UTF8
Codec ID/Info : UTF-8 Plain Text
Duration : 1 h 50 min
Bit rate : 39 b/s
Count of elements : 958
Stream size : 31.9 KiB (0%)
Language : Norwegian
Default : No
Forced : No


Text #17
ID : 19
Format : UTF-8
Codec ID : S_TEXT/UTF8
Codec ID/Info : UTF-8 Plain Text
Duration : 1 h 50 min
Bit rate : 38 b/s
Count of elements : 1040
Stream size : 31.3 KiB (0%)
Language : Polish
Default : No
Forced : No


Text #18
ID : 20
Format : UTF-8
Codec ID : S_TEXT/UTF8
Codec ID/Info : UTF-8 Plain Text
Duration : 1 h 50 min
Bit rate : 42 b/s
Count of elements : 1081
Stream size : 34.6 KiB (0%)
Language : Portuguese
Default : No
Forced : No


Text #19
ID : 21
Format : UTF-8
Codec ID : S_TEXT/UTF8
Codec ID/Info : UTF-8 Plain Text
Duration : 1 h 50 min
Bit rate : 39 b/s
Count of elements : 1048
Stream size : 31.8 KiB (0%)
Title : Brazilian
Language : Portuguese
Default : No
Forced : No


Text #20
ID : 22
Format : UTF-8
Codec ID : S_TEXT/UTF8
Codec ID/Info : UTF-8 Plain Text
Duration : 1 h 50 min
Bit rate : 39 b/s
Count of elements : 940
Stream size : 32.1 KiB (0%)
Language : Romanian
Default : No
Forced : No


Text #21
ID : 23
Format : UTF-8
Codec ID : S_TEXT/UTF8
Codec ID/Info : UTF-8 Plain Text
Duration : 1 h 50 min
Bit rate : 39 b/s
Count of elements : 1070
Stream size : 31.9 KiB (0%)
Language : Slovak
Default : No
Forced : No


Text #22
ID : 24
Format : UTF-8
Codec ID : S_TEXT/UTF8
Codec ID/Info : UTF-8 Plain Text
Duration : 1 h 50 min
Bit rate : 42 b/s
Count of elements : 1094
Stream size : 34.4 KiB (0%)
Language : Swedish
Default : No
Forced : No


Text #23
ID : 25
Format : UTF-8
Codec ID : S_TEXT/UTF8
Codec ID/Info : UTF-8 Plain Text
Duration : 1 h 50 min
Bit rate : 42 b/s
Count of elements : 989
Stream size : 34.4 KiB (0%)
Language : Turkish
Default : No
Forced : No


Text #24
ID : 26
Format : UTF-8
Codec ID : S_TEXT/UTF8
Codec ID/Info : UTF-8 Plain Text
Duration : 1 h 50 min
Bit rate : 40 b/s
Count of elements : 1124
Stream size : 32.8 KiB (0%)
Title : Simplified
Language : Chinese
Default : No
Forced : No


Text #25
ID : 27
Format : UTF-8
Codec ID : S_TEXT/UTF8
Codec ID/Info : UTF-8 Plain Text
Duration : 1 h 50 min
Bit rate : 43 b/s
Count of elements : 1124
Stream size : 35.4 KiB (0%)
Title : Traditional
Language : Chinese
Default : No
Forced : No


Menu
01:44:52.458 : Credits

蓝光高清网提示您 点击下方附件名称 即可开始下载


多版本下载时请注意区分


Rise.2022.2160p.DSNP.WEB-DL.x265.10bit.HDR.DDP5.1.Atmos-4k电影下载

Rise.2022.2160p.DSNP.WEB-DL.x265.10bit.HDR.DDP5.1.Atmos【4k HDR 13.35 GB】

Rise.2022.2160p.DSNP.WEB-DL.x265.10bit.HDR.DDP5.1.Atmos-CM.torrent ( 17.33 KB )



Rise.2022.2160p.DSNP.WEB-DL.DDP5.1.Atmos.DV.MKV.x265【4k 杜比视界 13.30GB】

Rise.2022.2160p.DSNP.WEB-DL.DDP5.1.Atmos.DV.MKV.x265-AKi.torrent ( 17.27 KB )



Rise.2022.2160p.DSNP.WEB-DL.DDP5.1.Atmos.DV.MP4.x265【4k 杜比视界 13.30GB】

Rise.2022.2160p.DSNP.WEB-DL.DDP5.1.Atmos.DV.MP4.x265-DVSUX.torrent ( 17.27 KB )




加入蓝光高清网VIP会员  无限制下载本站所有资源---点这里

资源下载、资源播放、字幕使用、无法下载等常见问题---点这里
回复

使用道具 举报

全部回复3 显示全部楼层
再会未来 发表于 2022-6-25 20:30:34 | 显示全部楼层
11111111111111
回复 支持 反对

使用道具 举报

PCHUN 发表于 2022-6-25 23:41:06 | 显示全部楼层
謝謝樓主分享
回复 支持 反对

使用道具 举报

dongshouba手机认证 发表于 2022-6-26 00:01:14 | 显示全部楼层
感谢分享
回复

使用道具 举报

发表回复

您需要登录后才可以回帖 登录 | 立即注册

本版积分规则

联系客服 关注微信 下载APP 返回顶部 返回列表