蓝光高清网

搜索
开启左侧

Trevor.The.Musical.2022.2160p.DSNP.WEB-DL.x265.10bit.HDR.DDP5.1-4k音乐剧下载-13.15 GB

蓝鸟 发表于 2022-6-25 08:55:36 | 显示全部楼层 |阅读模式
Trevor.The.Musical 豆瓣评分: 无评分
上映时间:2022年
类型:歌舞 
地区:美国 
导演:Robin Mishkin
主演:Holden Hagelberger
画质标准:4K HDR  封装音轨:Dolby TrueHD 5.1 
简       介

       暂无简介···

影片参数
Trevor.The.Musical.2022.2160p.DSNP.WEB-DL.x265.10bit.HDR.DDP5.1-4k音乐剧信息
Video
ID : 1
Format : HEVC
Format/Info : High Efficiency Video Coding
Format profile : Main 10@L5@High
HDR format : SMPTE ST 2086, HDR10 compatible
Codec ID : V_MPEGH/ISO/HEVC
Duration : 1 h 53 min
Bit rate : 16.4 Mb/s
Width : 3 840 pixels
Height : 2 160 pixels
Display aspect ratio : 16:9
Frame rate mode : Constant
Frame rate : 23.976 (24000/1001) FPS
Color space : YUV
Chroma subsampling : 4:2:0
Bit depth : 10 bits
Bits/(Pixel*Frame) : 0.082
Stream size : 12.9 GiB (98%)
Language : English
Default : Yes
Forced : No
Color range : Limited
Color primaries : BT.2020
Transfer characteristics : PQ
Matrix coefficients : BT.2020 non-constant
Mastering display color primaries : BT.2020
Mastering display luminance : min: 0.0001 cd/m2, max: 1000 cd/m2


Text #20
ID : 22
Format : UTF-8
Codec ID : S_TEXT/UTF8
Codec ID/Info : UTF-8 Plain Text
Duration : 1 h 53 min
Bit rate : 81 b/s
Count of elements : 1898
Stream size : 67.3 KiB (0%)
Title : Slovenčina
Language : Slovak
Default : No
Forced : No


Text #21
ID : 23
Format : UTF-8
Codec ID : S_TEXT/UTF8
Codec ID/Info : UTF-8 Plain Text
Duration : 1 h 53 min
Bit rate : 75 b/s
Count of elements : 1894
Stream size : 62.8 KiB (0%)
Title : Svenska
Language : Swedish
Default : No
Forced : No


Text #22
ID : 24
Format : UTF-8
Codec ID : S_TEXT/UTF8
Codec ID/Info : UTF-8 Plain Text
Duration : 1 h 53 min
Bit rate : 84 b/s
Count of elements : 1899
Stream size : 69.8 KiB (0%)
Title : Türkçe
Language : Turkish
Default : No
Forced : No


Text #23
ID : 25
Format : UTF-8
Codec ID : S_TEXT/UTF8
Codec ID/Info : UTF-8 Plain Text
Duration : 1 h 53 min
Bit rate : 68 b/s
Count of elements : 1902
Stream size : 56.8 KiB (0%)
Title : Chinese (Hong Kong)
Language : Chinese
Default : No
Forced : No


Text #24
ID : 26
Format : UTF-8
Codec ID : S_TEXT/UTF8
Codec ID/Info : UTF-8 Plain Text
Duration : 1 h 53 min
Bit rate : 68 b/s
Count of elements : 1902
Stream size : 57.2 KiB (0%)
Title : Chinese (Traditional)
Language : Chinese
Default : No
Forced : No


Text #25
ID : 27
Format : UTF-8
Codec ID : S_TEXT/UTF8
Codec ID/Info : UTF-8 Plain Text
Duration : 1 h 53 min
Bit rate : 72 b/s
Count of elements : 1901
Stream size : 60.2 KiB (0%)
Title : Chinese (Simplified)
Language : Chinese
Default : No
Forced : No




蓝光高清网提示您 点击下方附件名称 即可开始下载


多版本下载时请注意区分


Trevor.The.Musical.2022.2160p.DSNP.WEB-DL.x265.10bit.HDR.DDP5.1-4k音乐剧下载

Trevor.The.Musical.2022.2160p.DSNP.WEB-DL.x265.10bit.HDR.DDP5.1【4k HDR 13.15 GB】

Trevor.The.Musical.2022.2160p.DSNP.WEB-DL.x265.10bit.HDR.DDP5.1-KOGi.torrent ( 17.16 KB )



Trevor.The.Musical.2022.2160p.DSNP.WEB-DL.DDP5.1.DV.MP4.x265【4k 杜比视界 13.20 GB】

Trevor.The.Musical.2022.2160p.DSNP.WEB-DL.DDP5.1.DV.MP4.x265-DVSUX.torrent ( 17.15 KB )



Trevor.The.Musical.2022.2160p.DSNP.WEB-DL.DDP5.1.DV.MKV.x265【4k 杜比视界 13.20 GB】

Trevor.The.Musical.2022.2160p.DSNP.WEB-DL.DDP5.1.DV.MKV.x265-KOGi.torrent ( 17.21 KB )




加入蓝光高清网VIP会员  无限制下载本站所有资源---点这里

资源下载、资源播放、字幕使用、无法下载等常见问题---点这里
回复

使用道具 举报

全部回复2 显示全部楼层
PCHUN 发表于 2022-6-25 23:40:50 | 显示全部楼层
謝謝樓主分享
回复 支持 反对

使用道具 举报

gdlmxia 发表于 2022-6-26 22:05:19 | 显示全部楼层
太好啦&萬分感謝版主的無私發佈分享%
回复 支持 反对

使用道具 举报

发表回复

您需要登录后才可以回帖 登录 | 立即注册

本版积分规则

联系客服 关注微信 下载APP 返回顶部 返回列表