蓝光高清网

搜索
开启左侧

[剧情片] 哈林夜总会 Harlem.Nights.1989.1080p.BluRay.REMUX.AVC.DTS-HD.MA.5.1-FGT 33.00GB

蓝鸟 发表于 2022-6-27 10:27:46 | 显示全部楼层 |阅读模式

哈林夜总会 Harlem.Nights.1989.1080p.BluRay.REMUX.AVC.DTS-HD.MA.5.1-FGT 33.00GB

哈林夜总会 Harlem.Nights.1989.1080p.BluRay.REMUX.AVC.DTS-HD.MA.5.1-FGT 33.00GB


标  题 哈林夜总会
译  名 哈莱姆夜总会
片  名 Harlem Nights
年  代 1989
产  地 美国
类  别 剧情 / 喜剧 / 爱情 / 犯罪
语  言 英语
上映日期 1989-11-17
IMDb评分 6.1/10 (21914人评价)
片  长 116 分钟
标  签 美国 / 喜剧 / 犯罪 / 1989 / 黑人 / 艾迪·墨菲 / 剧情 / 美国电影

简  介

(版本一)20世纪20年代,一个纽约赌场的老板和他的合伙人为了能继续经营,不得不应对来自黑帮、腐败警察的竞争和骚扰……                                                                      (版本二)“方糖”雷是一家非法赌场的老板,正苦于应付来自凶狠黑帮和腐败警察的重重压力,他们想把雷赶出赌场生意。身处犯罪猖獗、腐败盛行的20世纪20年代,再卑劣的骗局也都稀疏平常。


影片参数
  1. Video
  2. ID                                       : 1
  3. ID in the original source medium         : 4113 (0x1011)
  4. Format                                   : AVC
  5. Format/Info                              : Advanced Video Codec
  6. Format profile                           : [email protected]
  7. Format settings                          : CABAC / 4 Ref Frames
  8. Format settings, CABAC                   : Yes
  9. Format settings, Reference frames        : 4 frames
  10. Codec ID                                 : V_MPEG4/ISO/AVC
  11. Duration                                 : 1 h 55 min
  12. Bit rate mode                            : Variable
  13. Bit rate                                 : 36.9 Mb/s
  14. Maximum bit rate                         : 39.0 Mb/s
  15. Width                                    : 1 920 pixels
  16. Height                                   : 1 080 pixels
  17. Display aspect ratio                     : 16:9
  18. Frame rate mode                          : Constant
  19. Frame rate                               : 23.976 (24000/1001/189150) FPS
  20. Color space                              : YUV
  21. Chroma subsampling                       : 4:2:0
  22. Bit depth                                : 8 bits
  23. Scan type                                : Progressive
  24. Bits/(Pixel*Frame)                       : 0.743
  25. Stream size                              : 29.9 GiB (90%)
  26. Language                                 : English
  27. Default                                  : No
  28. Forced                                   : No
  29. Original source medium                   : Blu-ray
  30. Audio
  31. ID                                       : 2
  32. ID in the original source medium         : 4352 (0x1100)
  33. Format                                   : DTS XLL
  34. Format/Info                              : Digital Theater Systems
  35. Commercial name                          : DTS-HD Master Audio
  36. Codec ID                                 : A_DTS
  37. Duration                                 : 1 h 55 min
  38. Bit rate mode                            : Variable
  39. Bit rate                                 : 3 789 kb/s
  40. Channel(s)                               : 6 channels
  41. Channel layout                           : C L R Ls Rs LFE
  42. Sampling rate                            : 48.0 kHz
  43. Frame rate                               : 93.750 FPS (512 SPF)
  44. Bit depth                                : 24 bits
  45. Compression mode                         : Lossless
  46. Stream size                              : 3.06 GiB (9%)
  47. Title                                    : DTS-HD MA 5.1
  48. Language                                 : English
  49. Default                                  : Yes
  50. Forced                                   : No
  51. Original source medium                   : Blu-ray
  52. Text #1
  53. ID                                       : 3
  54. Format                                   : UTF-8
  55. Codec ID                                 : S_TEXT/UTF8
  56. Codec ID/Info                            : UTF-8 Plain Text
  57. Duration                                 : 1 h 50 min
  58. Bit rate                                 : 75 b/s
  59. Count of elements                        : 1742
  60. Stream size                              : 60.8 KiB (0%)
  61. Language                                 : English
  62. Default                                  : Yes
  63. Forced                                   : No
  64. Text #2
  65. ID                                       : 4
  66. Format                                   : UTF-8
  67. Codec ID                                 : S_TEXT/UTF8
  68. Codec ID/Info                            : UTF-8 Plain Text
  69. Duration                                 : 1 h 50 min
  70. Bit rate                                 : 80 b/s
  71. Count of elements                        : 1884
  72. Stream size                              : 65.3 KiB (0%)
  73. Title                                    : SDH
  74. Language                                 : English
  75. Default                                  : No
  76. Forced                                   : No
  77. Text #3
  78. ID                                       : 5
  79. ID in the original source medium         : 4608 (0x1200)
  80. Format                                   : PGS
  81. Muxing mode                              : zlib
  82. Codec ID                                 : S_HDMV/PGS
  83. Codec ID/Info                            : Picture based subtitle format used on BDs/HD-DVDs
  84. Duration                                 : 1 h 46 min
  85. Bit rate                                 : 52.2 kb/s
  86. Count of elements                        : 3414
  87. Stream size                              : 39.8 MiB (0%)
  88. Language                                 : English
  89. Default                                  : No
  90. Forced                                   : No
  91. Original source medium                   : Blu-ray
  92. Text #4
  93. ID                                       : 6
  94. ID in the original source medium         : 4609 (0x1201)
  95. Format                                   : PGS
  96. Muxing mode                              : zlib
  97. Codec ID                                 : S_HDMV/PGS
  98. Codec ID/Info                            : Picture based subtitle format used on BDs/HD-DVDs
  99. Duration                                 : 1 h 50 min
  100. Bit rate                                 : 55.4 kb/s
  101. Count of elements                        : 3788
  102. Stream size                              : 44.0 MiB (0%)
  103. Title                                    : SDH
  104. Language                                 : English
  105. Default                                  : No
  106. Forced                                   : No
  107. Original source medium                   : Blu-ray
  108. Text #5
  109. ID                                       : 7
  110. ID in the original source medium         : 4610 (0x1202)
  111. Format                                   : PGS
  112. Muxing mode                              : zlib
  113. Codec ID                                 : S_HDMV/PGS
  114. Codec ID/Info                            : Picture based subtitle format used on BDs/HD-DVDs
  115. Duration                                 : 1 h 46 min
  116. Bit rate                                 : 40.0 kb/s
  117. Count of elements                        : 2174
  118. Stream size                              : 30.6 MiB (0%)
  119. Language                                 : German
  120. Default                                  : No
  121. Forced                                   : No
  122. Original source medium                   : Blu-ray
  123. Text #6
  124. ID                                       : 8
  125. ID in the original source medium         : 4611 (0x1203)
  126. Format                                   : PGS
  127. Muxing mode                              : zlib
  128. Codec ID                                 : S_HDMV/PGS
  129. Codec ID/Info                            : Picture based subtitle format used on BDs/HD-DVDs
  130. Duration                                 : 1 h 50 min
  131. Bit rate                                 : 35.9 kb/s
  132. Count of elements                        : 2518
  133. Stream size                              : 28.3 MiB (0%)
  134. Language                                 : French
  135. Default                                  : No
  136. Forced                                   : No
  137. Original source medium                   : Blu-ray
  138. Text #7
  139. ID                                       : 9
  140. ID in the original source medium         : 4612 (0x1204)
  141. Format                                   : PGS
  142. Muxing mode                              : zlib
  143. Codec ID                                 : S_HDMV/PGS
  144. Codec ID/Info                            : Picture based subtitle format used on BDs/HD-DVDs
  145. Duration                                 : 1 h 48 min
  146. Bit rate                                 : 30.9 kb/s
  147. Count of elements                        : 2858
  148. Stream size                              : 23.9 MiB (0%)
  149. Language                                 : Japanese
  150. Default                                  : No
  151. Forced                                   : No
  152. Original source medium                   : Blu-ray
  153. Text #8
  154. ID                                       : 10
  155. ID in the original source medium         : 4613 (0x1205)
  156. Format                                   : PGS
  157. Muxing mode                              : zlib
  158. Codec ID                                 : S_HDMV/PGS
  159. Codec ID/Info                            : Picture based subtitle format used on BDs/HD-DVDs
  160. Duration                                 : 2 s 816 ms
  161. Bit rate                                 : 34.1 kb/s
  162. Count of elements                        : 2
  163. Stream size                              : 11.7 KiB (0%)
  164. Language                                 : German
  165. Default                                  : No
  166. Forced                                   : No
  167. Original source medium                   : Blu-ray
  168. Text #9
  169. ID                                       : 11
  170. ID in the original source medium         : 4614 (0x1206)
  171. Format                                   : PGS
  172. Muxing mode                              : zlib
  173. Codec ID                                 : S_HDMV/PGS
  174. Codec ID/Info                            : Picture based subtitle format used on BDs/HD-DVDs
  175. Duration                                 : 1 h 48 min
  176. Bit rate                                 : 119 b/s
  177. Count of elements                        : 8
  178. Stream size                              : 94.9 KiB (0%)
  179. Language                                 : French
  180. Default                                  : No
  181. Forced                                   : No
  182. Original source medium                   : Blu-ray
  183. Text #10
  184. ID                                       : 12
  185. ID in the original source medium         : 4615 (0x1207)
  186. Format                                   : PGS
  187. Muxing mode                              : zlib
  188. Codec ID                                 : S_HDMV/PGS
  189. Codec ID/Info                            : Picture based subtitle format used on BDs/HD-DVDs
  190. Duration                                 : 1 h 46 min
  191. Bit rate                                 : 121 b/s
  192. Count of elements                        : 12
  193. Stream size                              : 94.9 KiB (0%)
  194. Language                                 : Japanese
  195. Default                                  : No
  196. Forced                                   : No
  197. Original source medium                   : Blu-ray
  198. Menu
  199. 00:00:00.000                             : en:Chapter 01
  200. 00:02:37.490                             : en:Chapter 02
  201. 00:08:46.943                             : en:Chapter 03
  202. 00:21:16.775                             : en:Chapter 04
  203. 00:29:43.865                             : en:Chapter 05
  204. 00:37:22.323                             : en:Chapter 06
  205. 00:42:21.372                             : en:Chapter 07
  206. 00:54:01.071                             : en:Chapter 08
  207. 00:59:28.314                             : en:Chapter 09
  208. 01:08:29.897                             : en:Chapter 10
  209. 01:11:10.975                             : en:Chapter 11
  210. 01:21:59.539                             : en:Chapter 12
  211. 01:24:29.689                             : en:Chapter 13
  212. 01:25:48.143                             : en:Chapter 14
  213. 01:30:52.447                             : en:Chapter 15
  214. 01:39:18.160                             : en:Chapter 16
  215. 01:47:42.372                             : en:Chapter 17
  216. 01:49:31.022                             : en:Chapter 18
复制代码

哈林夜总会 Harlem.Nights.1989.1080p.BluRay.REMUX.AVC.DTS-HD.MA.5.1-FGT 33.00GB

哈林夜总会 Harlem.Nights.1989.1080p.BluRay.REMUX.AVC.DTS-HD.MA.5.1-FGT 33.00GB

哈林夜总会 Harlem.Nights.1989.1080p.BluRay.REMUX.AVC.DTS-HD.MA.5.1-FGT 33.00GB

哈林夜总会 Harlem.Nights.1989.1080p.BluRay.REMUX.AVC.DTS-HD.MA.5.1-FGT 33.00GB



蓝光高清网提示您 点击下方附件即可下载

哈林夜总会 Harlem.Nights.1989.1080p.BluRay.REMUX.AVC.DTS-HD.MA.5.1-FGT 33.00GB

Harlem.Nights.1989.1080p.BluRay.REMUX.AVC.DTS-HD.MA.5.1-FGT.torrent ( 41.89 KB )

加入蓝光高清网VIP会员  无限制下载本站所有资源---点这里

资源下载、资源播放、字幕使用、无法下载等常见问题---点这里
回复

使用道具 举报

全部回复0 显示全部楼层

发表回复

您需要登录后才可以回帖 登录 | 立即注册

本版积分规则

联系客服 关注微信 下载APP 返回顶部 返回列表