蓝光高清网

搜索
开启左侧

[宇宙探索] 地球临界点(港)/打破边界:我们星球的科学4K.Breaking.Boundaries.The.Science.Of.Our.Planet.2021.2160p.NF.WEB-DL.x265.10bit.HDR.DDP5.1-4K电影下载-6.82 GB

蓝鸟 发表于 2022-7-15 11:12:41 | 显示全部楼层 |阅读模式

地球临界点(港)/打破边界:我们星球的科学4K.Breaking.Boundaries.The.Science.Of.Our.Planet.2021.2160p.N ...

地球临界点(港)/打破边界:我们星球的科学4K.Breaking.Boundaries.The.Science.Of.Our.Planet.2021.2160p.N ...



简       介


  《打破界限:拯救我们的星球》由大卫·艾登堡爵士解说,由 Silverback Films 负责制作,该获奖团队此前制作过具有里程碑意义的《我们的星球》系列和《大卫·艾登堡:我和我们的星球》。本片将说明这些有影响力的节目所依据的科学原理。《打破界限:拯救我们的星球》记录了著名科学家约翰·罗克斯特罗姆教授的科学之旅。该片讲述了这个时代最重要的科学发现 — 自文明诞生以来,地球已经稳定运转了一万年,直到被人类打破界限。这部时长 75 分钟的电影带领观众踏上探索之旅,探索我们不得逾越的界限,这不仅是为了地球的稳定,更是为了人类的未来。我们将能在本片中找到切实可行且迫在眉睫的解决方案,以保护地球的生命支持系统。

影片参数
打破界限:拯救我们的星球 / 地球超负荷:抢救蓝色母星(台) / 地球临界点(港)/打破边界:我们星球的科学4K.Breaking.Boundaries.The.Science.Of.Our.Planet.2021.2160p.NF.WEB-DL.x265.10bit.HDR.DDP5.1-4k电影信息
Video
ID : 1
Format : HEVC
Format/Info : High Efficiency Video Coding
Format profile : Main 10@L5@Main
HDR format : SMPTE ST 2086, HDR10 compatible
Codec ID : V_MPEGH/ISO/HEVC
Duration : 1 h 14 min
Bit rate : 12.3 Mb/s
Width : 3 840 pixels
Height : 2 160 pixels
Display aspect ratio : 16:9
Frame rate mode : Constant
Frame rate : 23.976 (24000/1001) FPS
Color space : YUV
Chroma subsampling : 4:2:0 (Type 2)
Bit depth : 10 bits
Bits/(Pixel*Frame) : 0.062
Stream size : 6.35 GiB (93%)
Default : Yes
Forced : No
Color range : Limited
Color primaries : BT.2020
Transfer characteristics : PQ
Matrix coefficients : BT.2020 non-constant
Mastering display color primaries : Display P3
Mastering display luminance : min: 0.0001 cd/m2, max: 1000 cd/m2
Maximum Content Light Level : 1295 cd/m2
Maximum Frame-Average Light Level : 811 cd/m2
Statistics Tags Issue : mkvmerge v61.0.0.39 (\'So\') 64-bit 2021-11-10 17:15:38 / mkvmerge v61.0.0.39 (\'So\') 64-bit 2021-11-11 16:18:16
FromStats_BitRate : 12658711
FromStats_Duration : 01:13:18.937000000
FromStats_FrameCount : 105469
FromStats_StreamSize : 6960609085


Audio
ID : 2
Format : E-AC-3
Format/Info : Enhanced AC-3
Commercial name : Dolby Digital Plus
Codec ID : A_EAC3
Duration : 1 h 14 min
Bit rate mode : Constant
Bit rate : 640 kb/s
Channel(s) : 6 channels
Channel layout : L R C LFE Ls Rs
Sampling rate : 48.0 kHz
Frame rate : 31.250 FPS (1536 SPF)
Compression mode : Lossy
Stream size : 339 MiB (5%)
Language : English
Service kind : Complete Main
Default : Yes
Forced : No
Statistics Tags Issue : mkvmerge v61.0.0.39 (\'So\') 64-bit 2021-11-10 17:15:38 / mkvmerge v61.0.0.39 (\'So\') 64-bit 2021-11-11 16:18:16
FromStats_BitRate : 640000
FromStats_Duration : 01:14:05.216000000
FromStats_FrameCount : 138913
FromStats_StreamSize : 355617280


Text #1
ID : 3
Format : UTF-8
Codec ID : S_TEXT/UTF8
Codec ID/Info : UTF-8 Plain Text
Title : [CC]
Language : English
Default : Yes
Forced : No
Statistics Tags Issue : mkvmerge v61.0.0.39 (\'So\') 64-bit 2021-11-10 17:15:38 / mkvmerge v61.0.0.39 (\'So\') 64-bit 2021-11-11 16:18:16
FromStats_BitRate : 94
FromStats_Duration : 01:10:56.044000000
FromStats_FrameCount : 1099
FromStats_StreamSize : 50534


Text #2
ID : 4
Format : UTF-8
Codec ID : S_TEXT/UTF8
Codec ID/Info : UTF-8 Plain Text
Language : Arabic
Default : No
Forced : No
Statistics Tags Issue : mkvmerge v61.0.0.39 (\'So\') 64-bit 2021-11-10 17:15:38 / mkvmerge v61.0.0.39 (\'So\') 64-bit 2021-11-11 16:18:16
FromStats_BitRate : 144
FromStats_Duration : 01:13:01.794000000
FromStats_FrameCount : 1099
FromStats_StreamSize : 79061


Text #3
ID : 5
Format : UTF-8
Codec ID : S_TEXT/UTF8
Codec ID/Info : UTF-8 Plain Text
Language : Czech
Default : No
Forced : No
Statistics Tags Issue : mkvmerge v61.0.0.39 (\'So\') 64-bit 2021-11-10 17:15:38 / mkvmerge v61.0.0.39 (\'So\') 64-bit 2021-11-11 16:18:16
FromStats_BitRate : 88
FromStats_Duration : 01:13:01.752000000
FromStats_FrameCount : 1083
FromStats_StreamSize : 48452


Text #4
ID : 6
Format : UTF-8
Codec ID : S_TEXT/UTF8
Codec ID/Info : UTF-8 Plain Text
Language : Danish
Default : No
Forced : No
Statistics Tags Issue : mkvmerge v61.0.0.39 (\'So\') 64-bit 2021-11-10 17:15:38 / mkvmerge v61.0.0.39 (\'So\') 64-bit 2021-11-11 16:18:16
FromStats_BitRate : 83
FromStats_Duration : 01:13:01.794000000
FromStats_FrameCount : 982
FromStats_StreamSize : 45997


Text #5
ID : 7
Format : UTF-8
Codec ID : S_TEXT/UTF8
Codec ID/Info : UTF-8 Plain Text
Language : German
Default : No
Forced : No
Statistics Tags Issue : mkvmerge v61.0.0.39 (\'So\') 64-bit 2021-11-10 17:15:38 / mkvmerge v61.0.0.39 (\'So\') 64-bit 2021-11-11 16:18:16
FromStats_BitRate : 87
FromStats_Duration : 01:13:01.794000000
FromStats_FrameCount : 1013
FromStats_StreamSize : 48130






Text #31
ID : 33
Format : UTF-8
Codec ID : S_TEXT/UTF8
Codec ID/Info : UTF-8 Plain Text
Title : Simplified
Language : Chinese
Default : No
Forced : No
Statistics Tags Issue : mkvmerge v61.0.0.39 (\'So\') 64-bit 2021-11-10 17:15:38 / mkvmerge v61.0.0.39 (\'So\') 64-bit 2021-11-11 16:18:16
FromStats_BitRate : 83
FromStats_Duration : 01:13:01.794000000
FromStats_FrameCount : 1149
FromStats_StreamSize : 45957


Text #32
ID : 34
Format : UTF-8
Codec ID : S_TEXT/UTF8
Codec ID/Info : UTF-8 Plain Text
Title : Traditional
Language : Chinese
Default : No
Forced : No
Statistics Tags Issue : mkvmerge v61.0.0.39 (\'So\') 64-bit 2021-11-10 17:15:38 / mkvmerge v61.0.0.39 (\'So\') 64-bit 2021-11-11 16:18:16
FromStats_BitRate : 80
FromStats_Duration : 01:13:01.794000000
FromStats_FrameCount : 1153
FromStats_StreamSize : 44275

蓝光高清网提示您 点击下方附件名称 即可开始下载

打破界限:拯救我们的星球 / 地球超负荷:抢救蓝色母星(台) / 地球临界点(港)/打破边界:我们星球的科学4K.Breaking.Boundaries.The.Science.Of.Our.Planet.2021.2160p.NF.WEB-DL.x265.10bit.HDR.DDP5.1-4K纪录片电影下载

破边界:我们星球的科学4K.Breaking.Boundaries.The.Science.Of.Our.Planet.2021.2160p.NF.WEB-DL.x265.10bit.HDR.DDP5.1-简繁中字【4K HDR 6.82 GB】



来源: 地球临界点(港)/打破边界:我们星球的科学4K.Breaking.Boundaries.The.Science.Of.Our.Planet.2021.2160p.NF.WEB-DL.x265.10bit.HDR.DDP5.1-4K电影下载-6.82 GB
加入蓝光高清网VIP会员  无限制下载本站所有资源---点这里

资源下载、资源播放、字幕使用、无法下载等常见问题---点这里
回复

使用道具 举报

全部回复0 显示全部楼层

发表回复

您需要登录后才可以回帖 登录 | 立即注册

本版积分规则

联系客服 关注微信 下载APP 返回顶部 返回列表