蓝光高清网

搜索
开启左侧

大楼里的谋杀 4k.Only.Murders.in.the.Building.S02E01.2160p.WEB-DL.x265.10bit.HDR10Plus.DDP5.1-4k美剧下载-

蓝鸟 发表于 2022-7-20 10:55:41 | 显示全部楼层 |阅读模式
大楼里的谋杀 豆瓣评分: 8.7分

状态:第一季(更新至第5集 共10集)
上映时间:2022-06-28
类型:喜剧 犯罪 悬疑 
地区:美国
导演:约翰·霍夫曼 / 翁菲菲
主演:史蒂夫·马丁 / 马丁·肖特 / 赛琳娜·戈麦斯 / 杰妮·霍蒂谢尔 / 雪莉·麦克雷恩
画质标准:4K(3840x2160) 封装音轨:5.1声道 音轨编码:其他DD
剧情简介
  讲述三个对真实犯罪有着共同痴迷的陌生人突然发现自己被卷入其中的故事....
影片参数
公寓大楼里的谋杀案 第二季4k/破案三人行(台) / 大楼里只有谋杀 / 大楼里唯一的谋杀案 / 大楼里的谋杀4k.Only.Murders.in.the.Building.S02E01.2160p.WEB-DL.x265.10bit.HDR10Plus.DDP5.1-4k电影信息
Video
ID : 1
Format : HEVC
Format/Info : High Efficiency Video Coding
Format profile : Main 10@L5.1@Main
HDR format : Dolby Vision, Version 1.0, dvhe.08.06, BL+RPU, HDR10 compatible / SMPTE ST 2094 App 4, Version 1, HDR10+ Profile B compatible
Codec ID : V_MPEGH/ISO/HEVC
Duration : 35 min 45 s
Bit rate : 8 243 kb/s
Width : 3 840 pixels
Height : 2 160 pixels
Display aspect ratio : 16:9
Frame rate mode : Constant
Frame rate : 23.976 (24000/1001) FPS
Color space : YUV
Chroma subsampling : 4:2:0 (Type 2)
Bit depth : 10 bits
Bits/(Pixel*Frame) : 0.041
Stream size : 2.06 GiB (95%)
Default : Yes
Forced : No
Color range : Limited
Color primaries : BT.2020
Transfer characteristics : PQ
Matrix coefficients : BT.2020 non-constant
Mastering display color primaries : Display P3
Mastering display luminance : min: 0.0001 cd/m2, max: 1000 cd/m2
Maximum Content Light Level : 659 cd/m2
Maximum Frame-Average Light Level : 137 cd/m2


Audio
ID : 2
Format : E-AC-3
Format/Info : Enhanced AC-3
Commercial name : Dolby Digital Plus
Codec ID : A_EAC3
Duration : 35 min 45 s
Bit rate mode : Constant
Bit rate : 256 kb/s
Channel(s) : 6 channels
Channel layout : L R C LFE Ls Rs
Sampling rate : 48.0 kHz
Frame rate : 31.250 FPS (1536 SPF)
Compression mode : Lossy
Stream size : 65.5 MiB (3%)
Language : English
Service kind : Complete Main
Default : Yes
Forced : No


Text #1
ID : 3
Format : UTF-8
Codec ID : S_TEXT/UTF8
Codec ID/Info : UTF-8 Plain Text
Title : English [SDH]
Language : English
Default : No
Forced : No


Text #2
ID : 4
Format : UTF-8
Codec ID : S_TEXT/UTF8
Codec ID/Info : UTF-8 Plain Text
Title : Spanish [SDH]
Language : Spanish
Default : No
Forced : No


蓝光高清网提示您 点击下方附件名称 即可开始下载


多版本下载时请注意区分


公寓大楼里的谋杀案 第二季4k/破案三人行(台) / 大楼里只有谋杀 / 大楼里唯一的谋杀案 / 大楼里的谋杀4k.Only.Murders.in.the.Building.S02E01.2160p.WEB-DL.x265.10bit.HDR10Plus.DDP5.1-4k电影下载

大楼里的谋杀4k.Only.Murders.in.the.Building.S02E01.2160p.WEB-DL.x265.10bit.HDR10Plus.DDP5.1【4k 2.17 GB】

公寓大楼里的谋杀案 第二季4k.Only.Murders.in.the.Building.S02E01.2160p.WEB-DL.x265.10bit.HDR10Plus.DDP5.1-GGEZ.torrent ( 22.41 KB )



大楼里的谋杀4k.Only.Murders.in.the.Building.S02E01.2160p.WEB.H265【4k 3.96 GB】

公寓大楼里的谋杀案 第二季4k.Only.Murders.in.the.Building.S02E01.2160p.WEB.H265-GGEZ.torrent ( 20.58 KB )



大楼里的谋杀4k.Only.Murders.in.the.Building.S02E02.2160p.WEB-DL.x265.10bit.HDR10Plus.DDP5.1【4k 2.62 GB】

公寓大楼里的谋杀案 第二季4k.Only.Murders.in.the.Building.S02E02.2160p.WEB-DL.x265.10bit.HDR10Plus.DDP5.1-GGEZ.torrent ( 26.98 KB )



大楼里的谋杀4k.Only.Murders.in.the.Building.S02E02.2160p.WEB.h265【4k 3.92 GB】

公寓大楼里的谋杀案 第二季4k.Only.Murders.in.the.Building.S02E02.2160p.WEB.h265-KOGi.torrent ( 20.36 KB )



大楼里的谋杀4k.Only.Murders.in.the.Building.S02E03.2160p.WEB-DL.x265.10bit.HDR10Plus.DDP5.1【4k 2.30 GB】

公寓大楼里的谋杀案 第二季4k.Only.Murders.in.the.Building.S02E03.2160p.WEB-DL.x265.10bit.HDR10Plus.DDP5.1-NTb.torrent ( 23.75 KB )



大楼里的谋杀4k.Only.Murders.in.the.Building.S02E03.2160p.WEB.H265【4k 3.38 GB】

公寓大楼里的谋杀案 第二季4k.Only.Murders.in.the.Building.S02E03.2160p.WEB.H265-GLHF.torrent ( 17.67 KB )



大楼里的谋杀4k.Only.Murders.in.the.Building.S02E04.2160p.WEB-DL.x265.10bit.HDR10Plus.DDP5.1【4k 2.39 GB】

公寓大楼里的谋杀案 第二季4k.Only.Murders.in.the.Building.S02E04.2160p.WEB-DL.x265.10bit.HDR10Plus.DDP5.1-NTb.torrent ( 24.57 KB )



大楼里的谋杀4k.Only.Murders.in.the.Building.S02E04.2160p.WEB.H265【4k 4.09 GB】

公寓大楼里的谋杀案 第二季4k.Only.Murders.in.the.Building.S02E04.2160p.WEB.H265-GGEZ.torrent ( 21.18 KB )



大楼里的谋杀4k.Only.Murders.in.the.Building.S02E05.2160p.WEB-DL.x265.10bit.HDR10Plus.DDP5.1【4k 1.99 GB】

公寓大楼里的谋杀案 第二季4k.Only.Murders.in.the.Building.S02E05.2160p.WEB-DL.x265.10bit.HDR10Plus.DDP5.1-NTb.torrent ( 20.61 KB )



大楼里的谋杀4k.Only.Murders.in.the.Building.S02E05.2160p.WEB.h265【4k 3.88GB】

公寓大楼里的谋杀案 第二季4k.Only.Murders.in.the.Building.S02E05.2160p.WEB.h265-KOGi.torrent ( 20.17 KB )



加入蓝光高清网VIP会员  无限制下载本站所有资源---点这里

资源下载、资源播放、字幕使用、无法下载等常见问题---点这里
回复

使用道具 举报

全部回复1 显示全部楼层
dongshouba手机认证 发表于 2022-8-3 00:10:36 | 显示全部楼层
感谢分享
回复

使用道具 举报

发表回复

您需要登录后才可以回帖 登录 | 立即注册

本版积分规则

联系客服 关注微信 下载APP 返回顶部 返回列表