蓝光高清网

搜索
开启左侧

[动物世界] 内心深处:德克萨斯野生动物的故事 Deep.in.the.Heart.A.Texas.Wildlife.Story.2022.2160p.WEB-DL.x265.10bit.HDR.DDP5.1.Atmos-纪录片下载-17.95 GB

蓝鸟 发表于 2022-7-25 13:30:16 | 显示全部楼层 |阅读模式

内心深处:德克萨斯野生动物的故事 Deep.in.the.Heart.A.Texas.Wildlife.Story.2022.2160p.WEB-DL.x265.10b ...

内心深处:德克萨斯野生动物的故事 Deep.in.the.Heart.A.Texas.Wildlife.Story.2022.2160p.WEB-DL.x265.10b ...



简       介


  Deep in the Heart 是一场视觉上令人惊叹的庆祝活动,旨在庆祝德克萨斯州的独特之处 - 其多样化的景观和非凡的野生动物行为,这是世界其他任何地方都找不到的。通过从神秘的盲鲶鱼到难以捉摸的美洲狮等野生动物物种的视角,这个故事讲述了我们与自然世界不断变化的关系,展示了我们破坏、保护和恢复野生动物以及我们共同依赖的栖息地的能力. 这部适合家庭的电影由马修·麦康纳(Matthew McConaughey)旁白,采用最先进的摄影技术,从德克萨斯州西部的最高峰出发,穿越我们的含水层、河流和海湾,深入墨西哥湾。Deep in the Heart 旨在保护我们剩余的荒野,展示水和野生动物的连通性,


影片参数
Deep.in.the.Heart.A.Texas.Wildlife.Story.2022.2160p.WEB-DL.x265.10bit.HDR.DDP5.1.Atmos-纪录片信息
Video
ID : 1
Format : HEVC
Format/Info : High Efficiency Video Coding
Format profile : Main 10@L5@High
HDR format : SMPTE ST 2086, HDR10 compatible
Codec ID : V_MPEGH/ISO/HEVC
Duration : 1 h 42 min
Bit rate : 24.2 Mb/s
Width : 3 840 pixels
Height : 2 160 pixels
Display aspect ratio : 16:9
Frame rate mode : Constant
Frame rate : 23.976 FPS
Color space : YUV
Chroma subsampling : 4:2:0 (Type 2)
Bit depth : 10 bits
Bits/(Pixel*Frame) : 0.122
Stream size : 17.4 GiB (97%)
Default : No
Forced : No
Color range : Limited
Color primaries : BT.2020
Transfer characteristics : PQ
Matrix coefficients : BT.2020 non-constant
Mastering display color primaries : BT.2020
Mastering display luminance : min: 0.0050 cd/m2, max: 1000 cd/m2
Maximum Content Light Level : 2758 cd/m2
Maximum Frame-Average Light Level : 384 cd/m2


Audio
ID : 2
Format : E-AC-3 JOC
Format/Info : Enhanced AC-3 with Joint Object Coding
Commercial name : Dolby Digital Plus with Dolby Atmos
Codec ID : A_EAC3
Duration : 1 h 42 min
Bit rate mode : Constant
Bit rate : 768 kb/s
Channel(s) : 6 channels
Channel layout : L R C LFE Ls Rs
Sampling rate : 48.0 kHz
Frame rate : 31.250 FPS (1536 SPF)
Compression mode : Lossy
Stream size : 565 MiB (3%)
Language : English
Service kind : Complete Main
Default : No
Forced : No
Complexity index : 16
Number of dynamic objects : 15
Bed channel count : 1 channel
Bed channel configuration : LFE


Text #1
ID : 3
Format : UTF-8
Codec ID : S_TEXT/UTF8
Codec ID/Info : UTF-8 Plain Text
Duration : 1 h 39 min
Bit rate : 44 b/s
Frame rate : 0.103 FPS
Count of elements : 613
Stream size : 32.0 KiB (0%)
Language : English
Default : No
Forced : No


Text #2
ID : 4
Format : UTF-8
Codec ID : S_TEXT/UTF8
Codec ID/Info : UTF-8 Plain Text
Duration : 1 h 39 min
Bit rate : 47 b/s
Frame rate : 0.127 FPS
Count of elements : 762
Stream size : 34.6 KiB (0%)
Title : SDH
Language : English
Default : No
Forced : No


Text #3
ID : 5
Format : UTF-8
Codec ID : S_TEXT/UTF8
Codec ID/Info : UTF-8 Plain Text
Duration : 1 h 39 min
Bit rate : 34 b/s
Frame rate : 0.096 FPS
Count of elements : 570
Stream size : 25.0 KiB (0%)
Title : Latin American
Language : Spanish
Default : No
Forced : No


Menu
00:00:00.000 : en:Chapter 1
00:12:15.000 : en:Chapter 2
00:20:06.000 : en:Chapter 3
00:30:33.000 : en:Chapter 4
00:41:50.000 : en:Chapter 5
00:53:34.000 : en:Chapter 6
01:05:00.000 : en:Chapter 7
01:16:39.000 : en:Chapter 8
01:25:36.000 : en:Chapter 9
01:36:42.000 : en:Chapter 10
01:40:09.000 : en:Chapter 11

蓝光高清网提示您 点击下方附件名称 即可开始下载


Deep.in.the.Heart.A.Texas.Wildlife.Story.2022.2160p.WEB-DL.x265.10bit.HDR.DDP5.1.Atmos-纪录片下载

Deep.in.the.Heart.A.Texas.Wildlife.Story.2022.2160p.WEB-DL.x265.10bit.HDR.DDP5.1.Atmos【4k HDR 17.95 GB】




来源: 内心深处:德克萨斯野生动物的故事 Deep.in.the.Heart.A.Texas.Wildlife.Story.2022.2160p.WEB-DL.x265.10bit.HDR.DDP5.1.Atmos-纪录片下载-17.95 GB
加入蓝光高清网VIP会员  无限制下载本站所有资源---点这里

资源下载、资源播放、字幕使用、无法下载等常见问题---点这里
回复

使用道具 举报

全部回复0 显示全部楼层

发表回复

您需要登录后才可以回帖 登录 | 立即注册

本版积分规则

联系客服 关注微信 下载APP 返回顶部 返回列表