蓝光高清网

搜索
开启左侧

鲁保罗变装皇后全明星 第七季4k.RuPauls.Drag.Race.All.Stars.S07.2160p.STAN.WEB-DL.AAC2.0.x265-4k真人秀下载- 79.59 GB

蓝鸟 发表于 2022-8-1 16:24:09 | 显示全部楼层 |阅读模式
鲁保罗变装皇后全明星 豆瓣评分: 无评分

状态:第七季(完结)
上映时间:2022-05-20
类型:真人秀 
地区:美国
导演:鲁保罗 / 米歇尔·维塞奇 / 卡森·克雷斯利 / 罗斯·马修斯
主演:未知
画质标准:4K(3840x2160) 封装音轨:2.0声道 音轨编码:其他AAC
剧情简介
....
本帖最后由 蓝鸟 于 2022-8-3 11:41 编辑

影片参数
鲁保罗变装皇后全明星 第七季4k.RuPauls.Drag.Race.All.Stars.S07.2160p.STAN.WEB-DL.AAC2.0.x265-4k真人秀信息
Video
ID : 1
Format : HEVC
Format/Info : High Efficiency Video Coding
Format profile : Main@L5@High
Codec ID : V_MPEGH/ISO/HEVC
Duration : 1 h 21 min
Bit rate : 14.8 Mb/s
Width : 3 840 pixels
Height : 2 160 pixels
Display aspect ratio : 16:9
Frame rate mode : Constant
Frame rate : 29.970 (30000/1001) FPS
Color space : YUV
Chroma subsampling : 4:2:0
Bit depth : 8 bits
Bits/(Pixel*Frame) : 0.060
Stream size : 8.49 GiB (99%)
Language : English
Default : Yes
Forced : No
Color range : Limited
Color primaries : BT.709
Transfer characteristics : BT.709
Matrix coefficients : BT.709


Audio
ID : 2
Format : AAC LC
Format/Info : Advanced Audio Codec Low Complexity
Codec ID : A_AAC-2
Duration : 1 h 21 min
Bit rate : 126 kb/s
Channel(s) : 2 channels
Channel layout : L R
Sampling rate : 44.1 kHz
Frame rate : 43.066 FPS (1024 SPF)
Compression mode : Lossy
Stream size : 73.6 MiB (1%)
Language : English
Default : Yes
Forced : No


Text
ID : 3
Format : UTF-8
Codec ID : S_TEXT/UTF8
Codec ID/Info : UTF-8 Plain Text
Duration : 1 h 21 min
Bit rate : 99 b/s
Frame rate : 0.399 FPS
Count of elements : 1957
Stream size : 59.6 KiB (0%)
Title : English [SDH]
Language : English
Default : No
Forced : No

蓝光高清网提示您 点击下方附件名称 即可开始下载


鲁保罗变装皇后全明星 第七季4k.RuPauls.Drag.Race.All.Stars.S07.2160p.STAN.WEB-DL.AAC2.0.x265-4k真人秀下载

鲁保罗变装皇后全明星 第七季4k.RuPauls.Drag.Race.All.Stars.S07.2160p.STAN.WEB-DL.AAC2.0.x265【4k 79.59 GB】

鲁保罗变装皇后全明星 第七季4k.RuPauls.Drag.Race.All.Stars.S07.2160p.STAN.WEB-DL.AAC2.0.x265-KOGi.torrent ( 101.11 KB )



加入蓝光高清网VIP会员  无限制下载本站所有资源---点这里

资源下载、资源播放、字幕使用、无法下载等常见问题---点这里
回复

使用道具 举报

全部回复0 显示全部楼层

发表回复

您需要登录后才可以回帖 登录 | 立即注册

本版积分规则

联系客服 关注微信 下载APP 返回顶部 返回列表