蓝光高清网

搜索
开启左侧

小黄人大眼萌:神偷奶爸前传 4k.Minions.The.Rise.of.Gru.2022.2160p.WEB-DL.x265.10bit.HDR.DDP5.1.Atmos-4k电影下载-15.31 GB

蓝鸟 发表于 2022-8-3 11:30:54 | 显示全部楼层 |阅读模式
小黄人大眼萌:神偷奶爸前传 豆瓣评分: 7.5分
上映时间:2022年
类型:喜剧 科幻 犯罪 动画 冒险 
地区:美国 
导演:凯尔·巴尔达 / 布拉德·埃布尔森 / 乔纳森·德尔瓦尔
主演:史蒂夫·卡瑞尔 / 皮埃尔·柯芬 / 艾伦·阿金 / 塔拉吉·P·汉森 / 杨紫琼
画质标准:4K HDR  封装音轨:Dolby TrueHD 5.1 
简       介

  这部新片将是2015年推出的小黄人独立电影《小黄人大眼萌》的直接续集。它作为《神偷奶爸》的衍生作品,讲述了小黄人们在“前格鲁”时代为其他主人服务的经历,不过少年格鲁曾经出现在这部衍生电影里,续集将围绕他与小黄人们结缘的过程展开剧情。


影片参数
小黄人大眼萌2:格鲁的崛起 / 小黄人2:格鲁的崛起 / 小小兵2:格鲁的崛起(台) / 小黄人大眼萌Ⅱ / 小黄人Ⅱ / 迷你兵团Ⅱ(港) / 小小兵Ⅱ(台) / 小黄人大电影Ⅱ / Minions 2/小黄人大眼萌:神偷奶爸前传4k.Minions.The.Rise.of.Gru.2022.2160p.WEB-DL.x265.10bit.HDR.DDP5.1.Atmos-4k电影信息
Video
ID : 1
Format : HEVC
Format/Info : High Efficiency Video Coding
Format profile : Main 10@L5@High
HDR format : SMPTE ST 2086, HDR10 compatible
Codec ID : V_MPEGH/ISO/HEVC
Duration : 1 h 27 min
Bit rate : 24.3 Mb/s
Width : 3 832 pixels
Height : 1 596 pixels
Display aspect ratio : 2.40:1
Frame rate mode : Constant
Frame rate : 23.976 FPS
Color space : YUV
Chroma subsampling : 4:2:0 (Type 2)
Bit depth : 10 bits
Bits/(Pixel*Frame) : 0.166
Stream size : 14.8 GiB (97%)
Default : Yes
Forced : No
Color range : Limited
Color primaries : BT.2020
Transfer characteristics : PQ
Matrix coefficients : BT.2020 non-constant
Mastering display color primaries : BT.2020
Mastering display luminance : min: 0.0050 cd/m2, max: 1000 cd/m2
Maximum Content Light Level : 4547 cd/m2
Maximum Frame-Average Light Level : 2052 cd/m2


Audio
ID : 2
Format : E-AC-3 JOC
Format/Info : Enhanced AC-3 with Joint Object Coding
Commercial name : Dolby Digital Plus with Dolby Atmos
Codec ID : A_EAC3
Duration : 1 h 27 min
Bit rate mode : Constant
Bit rate : 768 kb/s
Channel(s) : 6 channels
Channel layout : L R C LFE Ls Rs
Sampling rate : 48.0 kHz
Frame rate : 31.250 FPS (1536 SPF)
Compression mode : Lossy
Stream size : 481 MiB (3%)
Language : English
Service kind : Complete Main
Default : Yes
Forced : No
Complexity index : 16
Number of dynamic objects : 15
Bed channel count : 1 channel
Bed channel configuration : LFE


Text #1
ID : 3
Format : UTF-8
Codec ID : S_TEXT/UTF8
Codec ID/Info : UTF-8 Plain Text
Duration : 1 h 26 min
Bit rate : 44 b/s
Frame rate : 0.237 FPS
Count of elements : 1238
Stream size : 28.1 KiB (0%)
Language : English
Default : No
Forced : No


Text #2
ID : 4
Format : UTF-8
Codec ID : S_TEXT/UTF8
Codec ID/Info : UTF-8 Plain Text
Duration : 1 h 27 min
Bit rate : 69 b/s
Frame rate : 0.361 FPS
Count of elements : 1892
Stream size : 44.5 KiB (0%)
Title : SDH
Language : English
Default : No
Forced : No


Text #3
ID : 5
Format : UTF-8
Codec ID : S_TEXT/UTF8
Codec ID/Info : UTF-8 Plain Text
Duration : 1 h 26 min
Bit rate : 34 b/s
Frame rate : 0.182 FPS
Count of elements : 949
Stream size : 22.0 KiB (0%)
Title : Latin American
Language : Spanish
Default : No
Forced : No


Text #4
ID : 6
Format : UTF-8
Codec ID : S_TEXT/UTF8
Codec ID/Info : UTF-8 Plain Text
Duration : 1 h 26 min
Bit rate : 37 b/s
Frame rate : 0.181 FPS
Count of elements : 936
Stream size : 23.7 KiB (0%)
Title : Canadian
Language : French
Default : No
Forced : No


Menu
00:00:00.000 : en:Chapter 01
00:02:21.558 : en:Chapter 02
00:07:38.083 : en:Chapter 03
00:12:47.684 : en:Chapter 04
00:17:50.528 : en:Chapter 05
00:20:46.329 : en:Chapter 06
00:26:20.538 : en:Chapter 07
00:29:01.658 : en:Chapter 08
00:33:33.430 : en:Chapter 09
00:38:49.454 : en:Chapter 10
00:43:23.770 : en:Chapter 11
00:48:59.773 : en:Chapter 12
00:50:27.068 : en:Chapter 13
00:55:39.631 : en:Chapter 14
01:00:00.975 : en:Chapter 15
01:05:33.058 : en:Chapter 16
01:07:40.977 : en:Chapter 17
01:10:58.133 : en:Chapter 18
01:16:26.169 : en:Chapter 19
01:19:31.104 : en:Chapter 20


蓝光高清网提示您 点击下方附件名称 即可开始下载


多版本下载时请注意区分


小黄人大眼萌2:格鲁的崛起 / 小黄人2:格鲁的崛起 / 小小兵2:格鲁的崛起(台) / 小黄人大眼萌Ⅱ / 小黄人Ⅱ / 迷你兵团Ⅱ(港) / 小小兵Ⅱ(台) / 小黄人大电影Ⅱ / Minions 2/小黄人大眼萌:神偷奶爸前传4k.Minions.The.Rise.of.Gru.2022.2160p.WEB-DL.x265.10bit.HDR.DDP5.1.Atmos-4k电影下载

小黄人大眼萌:神偷奶爸前传4k.Minions.The.Rise.of.Gru.2022.2160p.WEB-DL.x265.10bit.HDR.DDP5.1.Atmos【4k HDR 15.31 GB】

小黄人大眼萌:神偷奶爸前传4k.Minions.The.Rise.of.Gru.2022.2160p.WEB-DL.x265.10bit.HDR.DDP5.1.Atmos-NOGRP.torrent ( 19.81 KB )



小黄人大眼萌:神偷奶爸前传4k.Minions.The.Rise.of.Gru.2022.2160p.WEB-DL.x265.10bit.SDR.DDP5.1.Atmos【4k SDR 7.71 GB】

小黄人大眼萌:神偷奶爸前传4k.Minions.The.Rise.of.Gru.2022.2160p.WEB-DL.x265.10bit.SDR.DDP5.1.Atmos-NOGRP.torrent ( 19.96 KB )



小黄人大眼萌:神偷奶爸前传4k.Minions.The.Rise.of.Gru.2022.2160p.WEB-DL.DDP5.1.Atmos.DV.MP4.x265【4k 杜比视界 15.45 GB】

小黄人大眼萌:神偷奶爸前传4k.Minions.The.Rise.of.Gru.2022.2160p.WEB-DL.DDP5.1.Atmos.DV.MP4.x265-DVSUX.torrent ( 19.98 KB )



小黄人大眼萌:神偷奶爸前传4k.Minions.The.Rise.of.Gru.2022.2160p.WEB-DL.DDP5.1.Atmos.DV.MKV.x265【4k 杜比视界 15.45GB】

小黄人大眼萌:神偷奶爸前传4k.Minions.The.Rise.of.Gru.2022.2160p.WEB-DL.DDP5.1.Atmos.DV.MKV.x265-DVSUX.torrent ( 19.98 KB )



小黄人大眼萌:神偷奶爸前传4k.Minions.The.Rise.of.Gru.2022.2160p.MA.WEB-DL.x265.10bit.SDR.DDP5.1.Atmos【4k SDR 15.56 GB】

小黄人大眼萌:神偷奶爸前传4k.Minions.The.Rise.of.Gru.2022.2160p.MA.WEB-DL.x265.10bit.SDR.DDP5.1.Atmos-CM.torrent ( 20.11 KB )



小黄人大眼萌:神偷奶爸前传中文字幕下载
https://www.4kii.com/thread-113644-1-1.html


加入蓝光高清网VIP会员  无限制下载本站所有资源---点这里

资源下载、资源播放、字幕使用、无法下载等常见问题---点这里
回复

使用道具 举报

全部回复3 显示全部楼层
PCHUN 发表于 2022-8-4 00:50:02 | 显示全部楼层
謝謝樓主分享
回复 支持 反对

使用道具 举报

gdlmxia 发表于 2022-8-5 22:44:19 | 显示全部楼层
太好啦&萬分感謝版主的無私發佈分享%
回复 支持 反对

使用道具 举报

tnnd617手机认证 发表于 2022-8-6 23:35:08 | 显示全部楼层
这个有没有国语的音轨啊
回复 支持 反对

使用道具 举报

发表回复

您需要登录后才可以回帖 登录 | 立即注册

本版积分规则

联系客服 关注微信 下载APP 返回顶部 返回列表