蓝光高清网

搜索
开启左侧

吸血鬼生活 第四季4k.What.We.Do.in.the.Shadows.S04E01.2160p.WEB.H265-4k美剧下载

蓝鸟 发表于 2022-8-4 11:18:30 | 显示全部楼层 |阅读模式
吸血鬼生活 豆瓣评分: 9.4分

状态:第四季(更新至第5集 共10集)
上映时间:2022-07-12
类型:喜剧 恐怖 奇幻 
地区:美国
导演:Yana Gorskaya
主演:法希姆·法兹利 / Emily Mitchell
画质标准:4K(3840x2160) 封装音轨:5.1声道 音轨编码:其他DD
剧情简介
  直到吸血鬼进来,派对才开始。FX 的《我们在阴影中做什么》将于 7 月 12 日星期二回归。在 Hulu 上播放所有剧集....
影片参数
吸血鬼生活 第四季4k.What.We.Do.in.the.Shadows.S04E01.2160p.WEB.H265-4k美剧信息
Video
ID : 1
Format : HEVC
Format/Info : High Efficiency Video Coding
Format profile : Main 10@L5.1@Main
Codec ID : V_MPEGH/ISO/HEVC
Duration : 22 min 36 s
Bit rate : 14.9 Mb/s
Width : 3 840 pixels
Height : 2 160 pixels
Display aspect ratio : 16:9
Frame rate mode : Constant
Frame rate : 23.976 (24000/1001) FPS
Color space : YUV
Chroma subsampling : 4:2:0
Bit depth : 10 bits
Bits/(Pixel*Frame) : 0.075
Stream size : 2.35 GiB (96%)
Default : Yes
Forced : No


Audio
ID : 2
Format : E-AC-3
Format/Info : Enhanced AC-3
Commercial name : Dolby Digital Plus
Codec ID : A_EAC3
Duration : 22 min 36 s
Bit rate mode : Constant
Bit rate : 256 kb/s
Channel(s) : 6 channels
Channel layout : L R C LFE Ls Rs
Sampling rate : 48.0 kHz
Frame rate : 31.250 FPS (1536 SPF)
Compression mode : Lossy
Delay relative to video : 24 ms
Stream size : 41.4 MiB (2%)
Language : English
Service kind : Complete Main
Default : Yes
Forced : No


Text
ID : 3
Format : UTF-8
Codec ID : S_TEXT/UTF8
Codec ID/Info : UTF-8 Plain Text
Title : English [SDH]
Language : English
Default : No
Forced : No




蓝光高清网提示您 点击下方附件名称 即可开始下载


多版本下载时请注意区分


吸血鬼生活 第四季4k.What.We.Do.in.the.Shadows.S04E01.2160p.WEB.H265-4k美剧下载

吸血鬼生活 第四季4k.What.We.Do.in.the.Shadows.S04E01.2160p.WEB.H265【4k 2.44 GB】

吸血鬼生活 第四季4k.What.We.Do.in.the.Shadows.S04E01.2160p.WEB.H265-GLHF.torrent ( 25.2 KB )



吸血鬼生活 第四季4k.What.We.Do.in.the.Shadows.S04E02.2160p.WEB.H265【4k 2.90 GB】

吸血鬼生活 第四季4k.What.We.Do.in.the.Shadows.S04E02.2160p.WEB.H265-GLHF.torrent ( 29.77 KB )



吸血鬼生活 第四季4k.What.We.Do.in.the.Shadows.S04E03.2160p.WEB.h265【4k 2.60 GB】

吸血鬼生活 第四季4k.What.We.Do.in.the.Shadows.S04E03.2160p.WEB.h265-KOGi.torrent ( 26.7 KB )



吸血鬼生活 第四季4k.What.We.Do.in.the.Shadows.S04E04.2160p.WEB.H265【4k 2.91 GB】

吸血鬼生活 第四季4k.What.We.Do.in.the.Shadows.S04E04.2160p.WEB.H265-GLHF.torrent ( 29.89 KB )



吸血鬼生活 第四季4k.What.We.Do.in.the.Shadows.S04E05.2160p.WEB.H265【4k 2.65 GB】

吸血鬼生活 第四季4k.What.We.Do.in.the.Shadows.S04E05.2160p.WEB.H265-GGEZ.torrent ( 27.25 KB )




加入蓝光高清网VIP会员  无限制下载本站所有资源---点这里

资源下载、资源播放、字幕使用、无法下载等常见问题---点这里
回复

使用道具 举报

全部回复0 显示全部楼层

发表回复

您需要登录后才可以回帖 登录 | 立即注册

本版积分规则

联系客服 关注微信 下载APP 返回顶部 返回列表