蓝光高清网

搜索
开启左侧

13条命 4k.Thirteen.Lives.2022.2160p.WEB-DL.x265.10bit.HDR10Plus.DDP5.1-4k电影下载-15.86 GB

1080pro 发表于 2022-8-5 21:18:04 | 显示全部楼层 |阅读模式
13条命 豆瓣评分: 无评分
上映时间:2022年
类型:剧情 惊悚 传记 
地区:英国 
导演:朗·霍华德
主演:维果·莫腾森 / 科林·法瑞尔 / 乔尔·埃哲顿 / 汤姆·巴特曼 / 乔什·赫尔曼
画质标准:4K HDR  封装音轨:Dolby TrueHD 5.1 
简       介

  改编自2018年泰国洞穴救援事件,讲述在泰国清莱省一个被洪水淹没的洞穴中,营救多名野猪足球队队员和教练的故事。


影片参数
13条命4k.Thirteen.Lives.2022.2160p.WEB-DL.x265.10bit.HDR10Plus.DDP5.1-4k电影信息
Video
ID : 1
Format : HEVC
Format/Info : High Efficiency Video Coding
Format profile : Main 10@L5@Main
HDR format : SMPTE ST 2094 App 4, Version 1, HDR10+ Profile B compatible
Codec ID : V_MPEGH/ISO/HEVC
Duration : 2 h 29 min
Bit rate : 14.1 Mb/s
Width : 3 840 pixels
Height : 1 600 pixels
Display aspect ratio : 2.40:1
Frame rate mode : Constant
Frame rate : 23.976 (24000/1001) FPS
Color space : YUV
Chroma subsampling : 4:2:0
Bit depth : 10 bits
Bits/(Pixel*Frame) : 0.096
Stream size : 14.8 GiB (94%)
Default : Yes
Forced : No
Color range : Limited
Color primaries : BT.2020
Transfer characteristics : PQ
Matrix coefficients : BT.2020 non-constant
Mastering display color primaries : Display P3
Mastering display luminance : min: 0.0001 cd/m2, max: 1000 cd/m2
Maximum Content Light Level : 1000 cd/m2
Maximum Frame-Average Light Level : 111 cd/m2


Audio
ID : 2
Format : E-AC-3
Format/Info : Enhanced AC-3
Commercial name : Dolby Digital Plus
Codec ID : A_EAC3
Duration : 2 h 29 min
Bit rate mode : Constant
Bit rate : 640 kb/s
Channel(s) : 6 channels
Channel layout : L R C LFE Ls Rs
Sampling rate : 48.0 kHz
Frame rate : 31.250 FPS (1536 SPF)
Compression mode : Lossy
Stream size : 685 MiB (4%)
Language : English
Service kind : Complete Main
Default : Yes
Forced : No


Text #1
ID : 3
Format : UTF-8
Codec ID : S_TEXT/UTF8
Codec ID/Info : UTF-8 Plain Text
Title : English [Forced]
Language : English
Default : Yes
Forced : Yes


Text #2
ID : 4
Format : UTF-8
Codec ID : S_TEXT/UTF8
Codec ID/Info : UTF-8 Plain Text
Title : English [SDH]
Language : English
Default : No
Forced : No


Text #3
ID : 5
Format : UTF-8
Codec ID : S_TEXT/UTF8
Codec ID/Info : UTF-8 Plain Text
Title : Arabic
Language : Arabic
Default : No
Forced : No


Text #4
ID : 6
Format : UTF-8
Codec ID : S_TEXT/UTF8
Codec ID/Info : UTF-8 Plain Text
Title : Basque (Spain)
Language : Basque
Default : No
Forced : No


Text #5
ID : 7
Format : UTF-8
Codec ID : S_TEXT/UTF8
Codec ID/Info : UTF-8 Plain Text
Title : Catalan (Spain)
Language : Catalan
Default : No
Forced : No


Text #6
ID : 8
Format : UTF-8
Codec ID : S_TEXT/UTF8
Codec ID/Info : UTF-8 Plain Text
Title : Chinese Simplified
Language : Chinese
Default : No
Forced : No


Text #7
ID : 9
Format : UTF-8
Codec ID : S_TEXT/UTF8
Codec ID/Info : UTF-8 Plain Text
Title : Chinese Traditional
Language : Chinese
Default : No
Forced : No




蓝光高清网提示您 点击下方附件名称 即可开始下载


13条命4k.Thirteen.Lives.2022.2160p.WEB-DL.x265.10bit.HDR10Plus.DDP5.1-4k电影下载

13条命4k.Thirteen.Lives.2022.2160p.WEB-DL.x265.10bit.HDR10Plus.DDP5.1-简繁中字【4k HDR 15.86 GB】

13条命4k.Thirteen.Lives.2022.2160p.WEB-DL.x265.10bit.HDR10Plus.DDP5.1-NAISU.torrent ( 20.61 KB )





回复

使用道具 举报

全部回复2 显示全部楼层
PCHUN 发表于 2022-8-6 00:28:08 | 显示全部楼层
Thanks for sharing
回复 支持 反对

使用道具 举报

gdlmxia 发表于 5 天前 | 显示全部楼层
太好啦&萬分感謝版主的無私發佈分享%
回复 支持 反对

使用道具 举报

发表回复

您需要登录后才可以回帖 登录 | 立即注册

本版积分规则

联系客服 关注微信 下载APP 返回顶部 返回列表