蓝光高清网

搜索
开启左侧

TA们 / Whistler Camp/他们/她们4K.They.and.Them.2022.2160p.PCOK.WEB-DL.x265.8bit.SDR.DDP5.1-4K电影下载-11.03 GB

1080pro 发表于 2022-8-5 21:40:23 | 显示全部楼层 |阅读模式
她们 豆瓣评分: 无评分
上映时间:2022年
类型:惊悚 恐怖 
地区:美国 
导演:约翰·洛根
主演:凯文·贝肯 / 安娜·克拉姆斯基 / 卡丽·普雷斯顿 / Anna Lore / 库珀·科奇
画质标准:4K SDR  封装音轨:Dolby TrueHD 5.1 
简       介

  一群LGBTQ+露营者来到惠斯勒营地——一个由欧文·惠斯勒(凯文·贝肯饰)经营的转换营,他们被承诺在周末之前会有一种新的自由感。当辅导员试图从心理上击垮每个露营者,一个神秘的杀手开始暗杀大家,他们会人如何在恐怖的氛围中生存下来呢?


影片参数
TA们 / Whistler Camp/他们/她们4K.They.and.Them.2022.2160p.PCOK.WEB-DL.x265.8bit.SDR.DDP5.1-4k电影信息
Video
ID : 1
Format : HEVC
Format/Info : High Efficiency Video Coding
Format profile : Main@L5@Main
Codec ID : V_MPEGH/ISO/HEVC
Duration : 1 h 44 min
Bit rate : 15.0 Mb/s
Width : 3 840 pixels
Height : 2 160 pixels
Display aspect ratio : 16:9
Frame rate mode : Constant
Frame rate : 23.976 (24000/1001) FPS
Color space : YUV
Chroma subsampling : 4:2:0
Bit depth : 8 bits
Bits/(Pixel*Frame) : 0.075
Stream size : 10.9 GiB (99%)
Writing library : x265 3.2.1+1-b5c86a64bbbe:[Linux][GCC 7.5.0][64 bit] 8bit+10bit+12bit
Encoding settings : cpuid=1111039 / frame-threads=6 / wpp / no-pmode / no-pme / no-psnr / no-ssim / log-level=2 / input-csp=1 / input-res=3840x2160 / interlace=0 / total-frames=0 / level-idc=0 / high-tier=1 / uhd-bd=0 / ref=3 / no-allow-non-conformance / repeat-headers / annexb / no-aud / no-hrd / info / hash=0 / no-temporal-layers / no-open-gop / min-keyint=1 / keyint=48 / gop-lookahead=0 / bframes=4 / b-adapt=2 / b-pyramid / bframe-bias=0 / rc-lookahead=20 / lookahead-slices=8 / scenecut=0 / radl=0 / no-splice / no-intra-refresh / ctu=64 / min-cu-size=8 / no-rect / no-amp / max-tu-size=32 / tu-inter-depth=1 / tu-intra-depth=1 / limit-tu=0 / rdoq-level=0 / dynamic-rd=0.00 / no-ssim-rd / signhide / no-tskip / nr-intra=0 / nr-inter=0 / no-constrained-intra / strong-intra-smoothing / max-merge=3 / limit-refs=1 / no-limit-modes / me=1 / subme=2 / merange=57 / temporal-mvp / no-hme / weightp / no-weightb / no-analyze-src-pics / deblock=0:0 / sao / no-sao-non-deblock / rd=3 / selective-sao=4 / early-skip / rskip / no-fast-intra / no-tskip-fast / no-cu-lossless / b-intra / no-splitrd-skip / rdpenalty=0 / psy-rd=2.00 / psy-rdoq=0.00 / no-rd-refine / no-lossless / cbqpoffs=0 / crqpoffs=0 / rc=abr / bitrate=15000 / qcomp=0.60 / qpstep=4 / stats-write=0 / stats-read=2 / cplxblur=20.0 / qblur=0.5 / vbv-maxrate=22500 / vbv-bufsize=22500 / vbv-init=1.0 / ipratio=1.40 / pbratio=1.30 / aq-mode=2 / aq-strength=1.00 / cutree / zone-count=0 / no-strict-cbr / qg-size=32 / no-rc-grain / qpmax=69 / qpmin=0 / no-const-vbv / sar=1 / overscan=0 / videoformat=5 / range=0 / colorprim=2 / transfer=2 / colormatrix=1 / chromaloc=0 / display-window=0 / cll=0,0 / min-luma=0 / max-luma=255 / log2-max-poc-lsb=8 / vui-timing-info / vui-hrd-info / slices=1 / no-opt-qp-pps / no-opt-ref-list-length-pps / no-multi-pass-opt-rps / scenecut-bias=0.05 / no-opt-cu-delta-qp / no-aq-motion / no-hdr / no-hdr-opt / no-dhdr10-opt / no-idr-recovery-sei / analysis-reuse-level=5 / scale-factor=0 / refine-intra=0 / refine-inter=0 / refine-mv=1 / refine-ctu-distortion=0 / no-limit-sao / ctu-info=0 / no-lowpass-dct / refine-analysis-type=0 / copy-pic=1 / max-ausize-factor=1.0 / no-dynamic-refine / no-single-sei / no-hevc-aq / no-svt / no-field / qp-adaptation-range=1.00
Language : English
Default : Yes
Forced : No
Color range : Limited
Matrix coefficients : BT.709


Audio
ID : 2
Format : E-AC-3
Format/Info : Enhanced AC-3
Commercial name : Dolby Digital Plus
Codec ID : A_EAC3
Duration : 1 h 44 min
Bit rate mode : Constant
Bit rate : 192 kb/s
Channel(s) : 6 channels
Channel layout : L R C LFE Ls Rs
Sampling rate : 48.0 kHz
Frame rate : 31.250 FPS (1536 SPF)
Compression mode : Lossy
Stream size : 143 MiB (1%)
Language : English
Service kind : Complete Main
Default : Yes
Forced : No


Text #1
ID : 3
Format : UTF-8
Codec ID : S_TEXT/UTF8
Codec ID/Info : UTF-8 Plain Text
Duration : 1 h 39 min
Bit rate : 38 b/s
Frame rate : 0.150 FPS
Count of elements : 892
Stream size : 27.7 KiB (0%)
Language : English
Default : No
Forced : No


Text #2
ID : 4
Format : UTF-8
Codec ID : S_TEXT/UTF8
Codec ID/Info : UTF-8 Plain Text
Duration : 1 h 39 min
Bit rate : 42 b/s
Frame rate : 0.175 FPS
Count of elements : 1041
Stream size : 31.0 KiB (0%)
Title : SDH
Language : English
Default : No
Forced : No


Text #3
ID : 5
Format : UTF-8
Codec ID : S_TEXT/UTF8
Codec ID/Info : UTF-8 Plain Text
Duration : 1 h 39 min
Bit rate : 42 b/s
Frame rate : 0.174 FPS
Count of elements : 1038
Stream size : 31.3 KiB (0%)
Language : Spanish
Default : No
Forced : No


蓝光高清网提示您 点击下方附件名称 即可开始下载


TA们 / Whistler Camp/他们/她们4K.They.and.Them.2022.2160p.PCOK.WEB-DL.x265.8bit.SDR.DDP5.1-4K电影下载

他们/她们4K.They.and.Them.2022.2160p.PCOK.WEB-DL.x265.8bit.SDR.DDP5.1 【4K SDR 11.03 GB】

他们 她们4k.They.and.Them.2022.2160p.PCOK.WEB-DL.x265.8bit.SDR.DDP5.1-SMURF.torrent ( 14.42 KB )




回复

使用道具 举报

全部回复3 显示全部楼层
PCHUN 发表于 2022-8-6 00:27:14 | 显示全部楼层
Thanks for sharing
回复 支持 反对

使用道具 举报

dongshouba手机认证 发表于 2022-8-6 00:44:57 | 显示全部楼层
感谢分享
回复

使用道具 举报

gdlmxia 发表于 2022-8-6 08:56:11 | 显示全部楼层
太好啦&萬分感謝版主的無私發佈分享%
回复 支持 反对

使用道具 举报

发表回复

您需要登录后才可以回帖 登录 | 立即注册

本版积分规则

联系客服 关注微信 下载APP 返回顶部 返回列表