蓝光高清网

搜索
开启左侧

[犯罪] 《寻人 Chan.Is.Missing.1982.1080p.BluRay.x264-USURY 11.36GB》迅雷下载_BT种子下载_蓝光高清 - 蓝光电影网

蓝鸟 发表于 2022-8-5 21:44:25 | 显示全部楼层 |阅读模式

《寻人 Chan.Is.Missing.1982.1080p.BluRay.x264-USURY 11.36GB》迅雷下载_BT种子下载_蓝光高清 - 蓝光电影 ...

《寻人 Chan.Is.Missing.1982.1080p.BluRay.x264-USURY 11.36GB》迅雷下载_BT种子下载_蓝光高清 - 蓝光电影 ...


标  题 寻人
译  名 陈先生失踪
片  名 Chan Is Missing
年  代 1982
产  地 美国
类  别 犯罪
语  言 英语 / 粤语
上映日期 1982-06-04(美国)
IMDb评分 7.1/10 (1284人评价)
豆瓣评分 7.8/10 (378人评价)
片  长 80分钟
导  演 王颖 Wayne Wang
编  剧 王颖 Wayne Wang
演  员 王正方 Peter Wang
       王颖 Wayne Wang
       Michael Chin Michael Chin
       王颖 Wayne Wang

简  介

影片讲述旧金山市两个出租车司机在唐人街里寻找一位偷走他们四千块钱的神秘客人的故事。虽然只是一部带有强烈个人风格的低成本影片,但这部影片被认为是独立制片的先锋作品,而且把亚裔美国人作为影剧院片主角引领到了大银幕上,而从此王颖也进入好莱坞主流导演行列。


影片参数
  1. Video
  2. ID                                       : 1
  3. Format                                   : AVC
  4. Format/Info                              : Advanced Video Codec
  5. Format profile                           : [email protected]
  6. Format settings                          : CABAC / 5 Ref Frames
  7. Format settings, CABAC                   : Yes
  8. Format settings, Reference frames        : 5 frames
  9. Codec ID                                 : V_MPEG4/ISO/AVC
  10. Duration                                 : 1 h 15 min
  11. Bit rate                                 : 20.8 Mb/s
  12. Width                                    : 1 440 pixels
  13. Height                                   : 1 080 pixels
  14. Display aspect ratio                     : 4:3
  15. Frame rate mode                          : Constant
  16. Frame rate                               : 23.976 (24000/1001/189150) FPS
  17. Color space                              : YUV
  18. Chroma subsampling                       : 4:2:0
  19. Bit depth                                : 8 bits
  20. Scan type                                : Progressive
  21. Bits/(Pixel*Frame)                       : 0.558
  22. Stream size                              : 11.0 GiB (97%)
  23. Writing library                          : x264 core 164 r3095 baee400
  24. Encoding settings                        : cabac=1 / ref=5 / deblock=1:-3:-3 / analyse=0x3:0x133 / me=umh / subme=10 / psy=1 / psy_rd=1.00:0.15 / mixed_ref=1 / me_range=24 / chroma_me=1 / trellis=2 / 8x8dct=1 / cqm=0 / deadzone=21,11 / fast_pskip=1 / chroma_qp_offset=-3 / threads=18 / lookahead_threads=3 / sliced_threads=0 / nr=0 / decimate=1 / interlaced=0 / bluray_compat=0 / constrained_intra=0 / bframes=8 / b_pyramid=2 / b_adapt=2 / b_bias=0 / direct=3 / weightb=1 / open_gop=0 / weightp=2 / keyint=250 / keyint_min=23 / scenecut=40 / intra_refresh=0 / rc_lookahead=60 / rc=crf / mbtree=1 / crf=20.5 / qcomp=0.60 / qpmin=0 / qpmax=69 / qpstep=4 / ip_ratio=1.40 / aq=3:0.50
  25. Language                                 : English
  26. Default                                  : Yes
  27. Forced                                   : No

  28. Audio
  29. ID                                       : 2
  30. Format                                   : FLAC
  31. Format/Info                              : Free Lossless Audio Codec
  32. Codec ID                                 : A_FLAC
  33. Duration                                 : 1 h 15 min
  34. Bit rate mode                            : Variable
  35. Bit rate                                 : 648 kb/s
  36. Channel(s)                               : 1 channel
  37. Channel layout                           : C
  38. Sampling rate                            : 48.0 kHz
  39. Frame rate                               : 11.719 FPS (4096 SPF)
  40. Bit depth                                : 24 bits
  41. Compression mode                         : Lossless
  42. Stream size                              : 351 MiB (3%)
  43. Writing library                          : libFLAC 1.2.1 (UTC 2007-09-17)
  44. Language                                 : English
  45. Default                                  : Yes
  46. Forced                                   : No

  47. Text #1
  48. ID                                       : 3
  49. Format                                   : UTF-8
  50. Codec ID                                 : S_TEXT/UTF8
  51. Codec ID/Info                            : UTF-8 Plain Text
  52. Duration                                 : 1 h 4 min
  53. Bit rate                                 : 5 b/s
  54. Count of elements                        : 73
  55. Stream size                              : 2.71 KiB (0%)
  56. Title                                    : English forced
  57. Language                                 : English
  58. Default                                  : Yes
  59. Forced                                   : Yes

  60. Text #2
  61. ID                                       : 4
  62. Format                                   : PGS
  63. Muxing mode                              : zlib
  64. Codec ID                                 : S_HDMV/PGS
  65. Codec ID/Info                            : Picture based subtitle format used on BDs/HD-DVDs
  66. Duration                                 : 1 h 4 min
  67. Bit rate                                 : 735 b/s
  68. Count of elements                        : 146
  69. Stream size                              : 347 KiB (0%)
  70. Title                                    : English forced
  71. Language                                 : English
  72. Default                                  : No
  73. Forced                                   : No

  74. Text #3
  75. ID                                       : 5
  76. Format                                   : UTF-8
  77. Codec ID                                 : S_TEXT/UTF8
  78. Codec ID/Info                            : UTF-8 Plain Text
  79. Duration                                 : 1 h 13 min
  80. Bit rate                                 : 92 b/s
  81. Count of elements                        : 1094
  82. Stream size                              : 49.6 KiB (0%)
  83. Title                                    : English
  84. Language                                 : English
  85. Default                                  : No
  86. Forced                                   : No

  87. Text #4
  88. ID                                       : 6
  89. Format                                   : UTF-8
  90. Codec ID                                 : S_TEXT/UTF8
  91. Codec ID/Info                            : UTF-8 Plain Text
  92. Duration                                 : 1 h 13 min
  93. Bit rate                                 : 99 b/s
  94. Count of elements                        : 1169
  95. Stream size                              : 53.3 KiB (0%)
  96. Title                                    : English SDH
  97. Language                                 : English
  98. Default                                  : No
  99. Forced                                   : No

  100. Text #5
  101. ID                                       : 7
  102. Format                                   : PGS
  103. Muxing mode                              : zlib
  104. Codec ID                                 : S_HDMV/PGS
  105. Codec ID/Info                            : Picture based subtitle format used on BDs/HD-DVDs
  106. Duration                                 : 1 h 13 min
  107. Bit rate                                 : 12.4 kb/s
  108. Count of elements                        : 2338
  109. Stream size                              : 6.53 MiB (0%)
  110. Title                                    : English SDH
  111. Language                                 : English
  112. Default                                  : No
  113. Forced                                   : No

  114. Menu
  115. 00:00:00.000                             : en:00:00:00.000
  116. 00:05:04.804                             : en:00:05:04.804
  117. 00:14:05.219                             : en:00:14:05.219
  118. 00:20:23.264                             : en:00:20:23.264
  119. 00:25:35.993                             : en:00:25:35.993
  120. 00:35:54.235                             : en:00:35:54.235
  121. 00:42:23.458                             : en:00:42:23.458
  122. 00:46:45.553                             : en:00:46:45.553
  123. 00:56:07.573                             : en:00:56:07.573
  124. 01:01:54.252                             : en:01:01:54.252
  125. 01:08:28.146                             : en:01:08:28.146
复制代码

《寻人 Chan.Is.Missing.1982.1080p.BluRay.x264-USURY 11.36GB》迅雷下载_BT种子下载_蓝光高清 - 蓝光电影 ...

《寻人 Chan.Is.Missing.1982.1080p.BluRay.x264-USURY 11.36GB》迅雷下载_BT种子下载_蓝光高清 - 蓝光电影 ...



蓝光高清网提示您 点击下方附件即可下载

《寻人 Chan.Is.Missing.1982.1080p.BluRay.x264-USURY 11.36GB》迅雷下载_BT种子下载_蓝光高清 - 蓝光电影网

Chan.Is.Missing.1982.1080p.BluRay.x264-USURY.torrent ( 14.92 KB )

加入蓝光高清网VIP会员  无限制下载本站所有资源---点这里

资源下载、资源播放、字幕使用、无法下载等常见问题---点这里
回复

使用道具 举报

全部回复0 显示全部楼层

发表回复

您需要登录后才可以回帖 登录 | 立即注册

本版积分规则

联系客服 关注微信 下载APP 返回顶部 返回列表