蓝光高清网

搜索
开启左侧

孤注一掷:阿森纳 4k.All.or.Nothing.Arsenal.S01.HDR.2160p.WEB.H265-4k英剧纪录片下载

1080pro 发表于 2022-8-5 21:45:10 | 显示全部楼层 |阅读模式
孤注一掷:阿森纳 豆瓣评分: 无评分

状态:第一季(更新至第3集 共8集)
上映时间:2022-08-04
类型:剧情 运动 
地区:英国
导演:米克尔·阿尔特塔
主演:未知
画质标准:4K(3840x2160) 封装音轨:5.1声道 音轨编码:其他DD
剧情简介
  该剧记录阿森纳关键性的2021/22赛季,揭开那些起起伏伏的幕后,由枪手忠实球迷丹尼尔·卡卢亚担任旁白....
影片参数
孤注一掷:阿森纳4k.All.or.Nothing.Arsenal.S01E01.HDR.2160p.WEB.H265-4k英剧纪录片信息
Video
ID : 1
Format : HEVC
Format/Info : High Efficiency Video Coding
Format profile : Main 10@L5@Main
HDR format : SMPTE ST 2094 App 4, Version 1, HDR10+ Profile B compatible
Codec ID : V_MPEGH/ISO/HEVC
Duration : 53 min 28 s
Bit rate : 14.3 Mb/s
Width : 3 840 pixels
Height : 2 160 pixels
Display aspect ratio : 16:9
Frame rate mode : Constant
Frame rate : 25.000 FPS
Color space : YUV
Chroma subsampling : 4:2:0
Bit depth : 10 bits
Bits/(Pixel*Frame) : 0.069
Stream size : 5.33 GiB (94%)
Default : Yes
Forced : No
Color range : Limited
Color primaries : BT.2020
Transfer characteristics : PQ
Matrix coefficients : BT.2020 non-constant
Mastering display color primaries : Display P3
Mastering display luminance : min: 0.0001 cd/m2, max: 1000 cd/m2
Maximum Content Light Level : 999 cd/m2
Maximum Frame-Average Light Level : 301 cd/m2


Audio
ID : 2
Format : E-AC-3
Format/Info : Enhanced AC-3
Commercial name : Dolby Digital Plus
Codec ID : A_EAC3
Duration : 53 min 28 s
Bit rate mode : Constant
Bit rate : 640 kb/s
Channel(s) : 6 channels
Channel layout : L R C LFE Ls Rs
Sampling rate : 48.0 kHz
Frame rate : 31.250 FPS (1536 SPF)
Compression mode : Lossy
Stream size : 245 MiB (4%)
Language : English
Service kind : Complete Main
Default : Yes
Forced : No


Text #1
ID : 3
Format : UTF-8
Codec ID : S_TEXT/UTF8
Codec ID/Info : UTF-8 Plain Text
Title : English [Forced]
Language : English
Default : Yes
Forced : Yes


Text #2
ID : 4
Format : UTF-8
Codec ID : S_TEXT/UTF8
Codec ID/Info : UTF-8 Plain Text
Title : Arabic
Language : Arabic
Default : No
Forced : No


Text #3
ID : 5
Format : UTF-8
Codec ID : S_TEXT/UTF8
Codec ID/Info : UTF-8 Plain Text
Title : Chinese Simplified
Language : Chinese
Default : No
Forced : No


Text #4
ID : 6
Format : UTF-8
Codec ID : S_TEXT/UTF8
Codec ID/Info : UTF-8 Plain Text
Title : Chinese Traditional
Language : Chinese
Default : No
Forced : No


Text #5
ID : 7
Format : UTF-8
Codec ID : S_TEXT/UTF8
Codec ID/Info : UTF-8 Plain Text
Title : Czech (Czechia)
Language : Czech
Default : No
Forced : No


蓝光高清网提示您 点击下方附件名称 即可开始下载


孤注一掷:阿森纳4k.All.or.Nothing.Arsenal.S01E01.HDR.2160p.WEB.H265-4k英剧纪录片下载

孤注一掷:阿森纳4k.All.or.Nothing.Arsenal.S01E01.HDR.2160p.WEB.H265-简繁中字【4k HDR 5.68 GB】

孤注一掷:阿森纳4k.All.or.Nothing.Arsenal.S01E01.HDR.2160p.WEB.H265-BIGDOC.torrent ( 14.94 KB )



孤注一掷:阿森纳4k.All.or.Nothing.Arsenal.S01E02.HDR.2160p.WEB.H265-简繁中字【4k HDR 3.81 GB】

孤注一掷:阿森纳4k.All.or.Nothing.Arsenal.S01E02.HDR.2160p.WEB.H265-BIGDOC.torrent ( 19.78 KB )



孤注一掷:阿森纳4k.All.or.Nothing.Arsenal.S01E03.HDR.2160p.WEB.H265-简繁中字【4k HDR 5.11 GB】

孤注一掷:阿森纳4k.All.or.Nothing.Arsenal.S01E03.HDR.2160p.WEB.H265-BIGDOC.torrent ( 13.49 KB )



回复

使用道具 举报

全部回复1 显示全部楼层
gdlmxia 发表于 5 天前 | 显示全部楼层
太好啦&萬分感謝版主的無私發佈分享%
回复 支持 反对

使用道具 举报

发表回复

您需要登录后才可以回帖 登录 | 立即注册

本版积分规则

联系客服 关注微信 下载APP 返回顶部 返回列表