蓝光高清网

搜索
开启左侧

[惊悚] 《无辜者 The.Innocents.2021.1080p.BluRay.x264-USURY 16.68GB》迅雷下载_BT种子下载_蓝光高清 - 蓝光电影网

蓝鸟 发表于 2022-8-5 21:45:36 | 显示全部楼层 |阅读模式

《无辜者 The.Innocents.2021.1080p.BluRay.x264-USURY 16.68GB》迅雷下载_BT种子下载_蓝光高清 - 蓝光电影 ...

《无辜者 The.Innocents.2021.1080p.BluRay.x264-USURY 16.68GB》迅雷下载_BT种子下载_蓝光高清 - 蓝光电影 ...


标  题 无辜者
译  名 De uskyldige(挪威) / The Innocents(美国)
片  名 De uskyldige
年  代 2021
产  地 挪威 / 瑞典 / 丹麦 / 英国 / 法国 / 芬兰
类  别 惊悚 / 恐怖
语  言 挪威语
上映日期 2021-07-11(戛纳电影节) / 2021-09-03(挪威)
IMDb评分 7/10 (5788人评价)
豆瓣评分 7.0/10 (19149人评价)
片  长 117分钟
导  演 埃斯基尔·沃格特 Eskil Vogt
编  剧 埃斯基尔·沃格特 Eskil Vogt
演  员 雷克·蕾诺拉·弗洛特姆 Rakel Lenora Fløttum
       阿尔瓦·布林斯莫·拉姆斯塔德 Alva Brynsmo Ramstad
       艾伦·多丽特·彼得森 Ellen Dorrit Petersen
       莫滕·斯瓦特维特 Morten Svartveit
       Marius Kolbenstvedt Marius Kolbenstvedt
       托恩·格洛特约德·格伦 Tone Grøttjord-Glenne
       山姆·阿什拉夫 Sam Ashraf
       米娜·贾斯敏·布雷姆塞思·阿什海姆 Mina Yasmin Bremseth Asheim
       埃斯基尔·沃格特 Eskil Vogt

简  介

在一个暑假,四个小伙伴脱离了父母的监管,并发现他们都有隐藏的能力。当这些天真无邪的孩子在附近的森林里使用这些新能力时,不知不觉吸引了黑暗的东西,奇怪的事情开始发生。


影片参数
  1. Video
  2. ID                                       : 1
  3. Format                                   : AVC
  4. Format/Info                              : Advanced Video Codec
  5. Format profile                           : [email protected]
  6. Format settings                          : CABAC / 5 Ref Frames
  7. Format settings, CABAC                   : Yes
  8. Format settings, Reference frames        : 5 frames
  9. Codec ID                                 : V_MPEG4/ISO/AVC
  10. Duration                                 : 1 h 57 min
  11. Bit rate                                 : 16.6 Mb/s
  12. Width                                    : 1 920 pixels
  13. Height                                   : 804 pixels
  14. Display aspect ratio                     : 2.40:1
  15. Frame rate mode                          : Constant
  16. Frame rate                               : 24.000 FPS
  17. Color space                              : YUV
  18. Chroma subsampling                       : 4:2:0
  19. Bit depth                                : 8 bits
  20. Scan type                                : Progressive
  21. Bits/(Pixel*Frame)                       : 0.449
  22. Stream size                              : 13.6 GiB (82%)
  23. Writing library                          : x264 core 164 r3095 baee400
  24. Encoding settings                        : cabac=1 / ref=5 / deblock=1:-3:-3 / analyse=0x3:0x133 / me=umh / subme=10 / psy=1 / psy_rd=1.00:0.15 / mixed_ref=1 / me_range=24 / chroma_me=1 / trellis=2 / 8x8dct=1 / cqm=0 / deadzone=21,11 / fast_pskip=1 / chroma_qp_offset=-3 / threads=18 / lookahead_threads=3 / sliced_threads=0 / nr=0 / decimate=1 / interlaced=0 / bluray_compat=0 / constrained_intra=0 / bframes=8 / b_pyramid=2 / b_adapt=2 / b_bias=0 / direct=3 / weightb=1 / open_gop=0 / weightp=2 / keyint=250 / keyint_min=24 / scenecut=40 / intra_refresh=0 / rc_lookahead=60 / rc=crf / mbtree=1 / crf=17.0 / qcomp=0.60 / qpmin=0 / qpmax=69 / qpstep=4 / ip_ratio=1.40 / aq=3:0.60
  25. Language                                 : English
  26. Default                                  : Yes
  27. Forced                                   : No

  28. Audio #1
  29. ID                                       : 2
  30. Format                                   : DTS XLL
  31. Format/Info                              : Digital Theater Systems
  32. Commercial name                          : DTS-HD Master Audio
  33. Codec ID                                 : A_DTS
  34. Duration                                 : 1 h 57 min
  35. Bit rate mode                            : Variable
  36. Bit rate                                 : 3 606 kb/s
  37. Channel(s)                               : 6 channels
  38. Channel layout                           : C L R Ls Rs LFE
  39. Sampling rate                            : 48.0 kHz
  40. Frame rate                               : 93.750 FPS (512 SPF)
  41. Bit depth                                : 24 bits
  42. Compression mode                         : Lossless
  43. Stream size                              : 2.95 GiB (18%)
  44. Language                                 : Norwegian
  45. Default                                  : Yes
  46. Forced                                   : No

  47. Audio #2
  48. ID                                       : 3
  49. Format                                   : AAC LC
  50. Format/Info                              : Advanced Audio Codec Low Complexity
  51. Codec ID                                 : A_AAC-2
  52. Duration                                 : 1 h 57 min
  53. Bit rate                                 : 119 kb/s
  54. Channel(s)                               : 2 channels
  55. Channel layout                           : L R
  56. Sampling rate                            : 48.0 kHz
  57. Frame rate                               : 46.875 FPS (1024 SPF)
  58. Compression mode                         : Lossy
  59. Delay relative to video                  : 9 ms
  60. Stream size                              : 100 MiB (1%)
  61. Title                                    : English Commentary by Eskil Vogt and Sturla Brandth Gr?vlen
  62. Language                                 : English
  63. Default                                  : No
  64. Forced                                   : No

  65. Text #1
  66. ID                                       : 4
  67. Format                                   : UTF-8
  68. Codec ID                                 : S_TEXT/UTF8
  69. Codec ID/Info                            : UTF-8 Plain Text
  70. Duration                                 : 1 h 49 min
  71. Bit rate                                 : 16 b/s
  72. Count of elements                        : 588
  73. Stream size                              : 13.1 KiB (0%)
  74. Title                                    : English
  75. Language                                 : English
  76. Default                                  : Yes
  77. Forced                                   : Yes

  78. Text #2
  79. ID                                       : 5
  80. Format                                   : UTF-8
  81. Codec ID                                 : S_TEXT/UTF8
  82. Codec ID/Info                            : UTF-8 Plain Text
  83. Duration                                 : 1 h 49 min
  84. Bit rate                                 : 18 b/s
  85. Count of elements                        : 667
  86. Stream size                              : 15.3 KiB (0%)
  87. Title                                    : German
  88. Language                                 : German
  89. Default                                  : No
  90. Forced                                   : No

  91. Text #3
  92. ID                                       : 6
  93. Format                                   : PGS
  94. Muxing mode                              : zlib
  95. Codec ID                                 : S_HDMV/PGS
  96. Codec ID/Info                            : Picture based subtitle format used on BDs/HD-DVDs
  97. Duration                                 : 1 h 49 min
  98. Bit rate                                 : 7 027 b/s
  99. Count of elements                        : 1334
  100. Stream size                              : 5.53 MiB (0%)
  101. Title                                    : German
  102. Language                                 : German
  103. Default                                  : No
  104. Forced                                   : No

  105. Menu
  106. 00:00:00.000                             : en:00:00:00.000
  107. 00:06:33.292                             : en:00:06:33.292
  108. 00:10:51.208                             : en:00:10:51.208
  109. 00:15:40.583                             : en:00:15:40.583
  110. 00:20:19.667                             : en:00:20:19.667
  111. 00:26:34.125                             : en:00:26:34.125
  112. 00:35:29.917                             : en:00:35:29.917
  113. 00:41:27.625                             : en:00:41:27.625
  114. 00:51:13.833                             : en:00:51:13.833
  115. 00:57:49.375                             : en:00:57:49.375
  116. 01:06:13.958                             : en:01:06:13.958
  117. 01:11:46.875                             : en:01:11:46.875
  118. 01:17:27.583                             : en:01:17:27.583
  119. 01:26:52.042                             : en:01:26:52.042
  120. 01:31:52.750                             : en:01:31:52.750
  121. 01:39:31.667                             : en:01:39:31.667
  122. 01:45:04.208                             : en:01:45:04.208
  123. 01:51:55.333                             : en:01:51:55.333
复制代码



蓝光高清网提示您 点击下方附件即可下载

《无辜者 The.Innocents.2021.1080p.BluRay.x264-USURY 16.68GB》迅雷下载_BT种子下载_蓝光高清 - 蓝光电影网

The.Innocents.2021.1080p.BluRay.x264-USURY.torrent ( 21.58 KB )

加入蓝光高清网VIP会员  无限制下载本站所有资源---点这里

资源下载、资源播放、字幕使用、无法下载等常见问题---点这里
回复

使用道具 举报

全部回复1 显示全部楼层
wangzhang3手机认证 发表于 4 天前 | 显示全部楼层
支持发片,谢谢分享
回复 支持 反对

使用道具 举报

发表回复

您需要登录后才可以回帖 登录 | 立即注册

本版积分规则

联系客服 关注微信 下载APP 返回顶部 返回列表