蓝光高清网

搜索
开启左侧

[剧情] 《三更天 Johnny.OClock.1947.1080p.BluRay.x264-USURY 14.38GB》迅雷下载_BT种子下载_蓝光高清 - 蓝光电影网

蓝鸟 发表于 2022-8-5 21:46:02 | 显示全部楼层 |阅读模式

《三更天 Johnny.OClock.1947.1080p.BluRay.x264-USURY 14.38GB》迅雷下载_BT种子下载_蓝光高清 - 蓝光电影 ...

《三更天 Johnny.OClock.1947.1080p.BluRay.x264-USURY 14.38GB》迅雷下载_BT种子下载_蓝光高清 - 蓝光电影 ...


标  题 三更天
片  名 Johnny O''Clock
年  代 1947
产  地 美国
类  别 剧情 / 犯罪 / 黑色电影
语  言 英语
上映日期 1947-01-23
IMDb评分 6.8/10 (2223人评价)
豆瓣评分 6.2/10 (84人评价)
片  长 85 分钟
导  演 罗伯特·罗森 Robert Rossen
编  剧 米尔顿·霍姆斯 Milton Holmes
       罗伯特·罗森 Robert Rossen
演  员 迪克·鲍威尔 Dick Powell
       伊夫林·凯耶斯 Evelyn Keyes
       李·科布 Lee J. Cobb
       艾伦·德鲁 Ellen Drew
       尼娜·弗彻 Nina Foch
       Allen Mathews Allen Mathews
       Kenneth MacDonald Kenneth MacDonald
       Cy Malis Cy Malis
       Charles Marsh Charles Marsh
       约翰·凯洛格 John Kellogg
       Pat Lane Pat Lane
       肯纳G.肯普 Kenner G. Kemp
       George Lloyd George Lloyd
       马贝尔·佩吉 Mabel Paige
       Ralph Volkie Ralph Volkie
       Brick Sullivan Brick Sullivan
       Carl Saxe Carl Saxe
       杰弗里·塞尔 Jeffrey Sayre
       鲍勃·佩里 Bob Perry
       赛·欣德尔 Cy Schindell
       希门·鲁斯金 Shimen Ruskin
       罗宾·雷蒙德 Robin Raymond
       Robert Ryan Robert Ryan
       托马斯·戈梅斯 Thomas Gomez
       艾尔·希尔 Al Hill
       菲尔·布朗 Phil Brown
       约翰伯克斯 John Berkes
       布鲁克斯·贝内迪克特 Brooks Benedict
       杰夫·钱德勒 Jeff Chandler
       Charles Perry Charles Perry
       Paul Bradley Paul Bradley
       Raoul Freeman Raoul Freeman
       Matty Fain Matty Fain
       Jesse Graves Jesse Graves
       迪克·戈登 Dick Gordon
       Kit Guard Kit Guard
       Adolph Faylauer Adolph Faylauer
       弗吉尼亚·法莫 Virginia Farmer
       Jerry Frank Jerry Frank
       Victoria Faust Victoria Faust
       Gene Delmont Gene Delmont
       Jim Bannon Jim Bannon
       米尔顿·霍姆斯 Milton Holmes
       乔治·邓宁 George Duning
       伯内特·古费 Burnett Guffey
       沃伦·洛 Warren Low
       阿尔·克拉克 Al Clark
       史蒂芬·古森 Stephen Goosson
       卡里·奥戴尔 Cary Odell
       James Crowe James Crowe
       让·路易 Jean Louis
       Carl Hiecke Carl Hiecke

简  介

混上流社会的花花公子自认为如鱼得水,结果犯了禁,无论黑道还是白道的。警察调查他牵扯进的俩重谋杀案其实无关紧要,真正有趣的是他和三个女人的互动,她们都非常迷人。甚至出场不到半分钟的龙套女都很有特色。可惜结局莫名其妙。


影片参数
  1. Video
  2. ID                                       : 1
  3. Format                                   : AVC
  4. Format/Info                              : Advanced Video Codec
  5. Format profile                           : [email protected]
  6. Format settings                          : CABAC / 5 Ref Frames
  7. Format settings, CABAC                   : Yes
  8. Format settings, Reference frames        : 5 frames
  9. Codec ID                                 : V_MPEG4/ISO/AVC
  10. Duration                                 : 1 h 35 min
  11. Bit rate                                 : 20.8 Mb/s
  12. Width                                    : 1 440 pixels
  13. Height                                   : 1 080 pixels
  14. Display aspect ratio                     : 4:3
  15. Frame rate mode                          : Constant
  16. Frame rate                               : 23.976 (24000/1001/189150) FPS
  17. Color space                              : YUV
  18. Chroma subsampling                       : 4:2:0
  19. Bit depth                                : 8 bits
  20. Scan type                                : Progressive
  21. Bits/(Pixel*Frame)                       : 0.559
  22. Stream size                              : 13.9 GiB (97%)
  23. Writing library                          : x264 core 164 r3095 baee400
  24. Encoding settings                        : cabac=1 / ref=5 / deblock=1:-3:-3 / analyse=0x3:0x133 / me=umh / subme=10 / psy=1 / psy_rd=1.00:0.15 / mixed_ref=1 / me_range=24 / chroma_me=1 / trellis=2 / 8x8dct=1 / cqm=0 / deadzone=21,11 / fast_pskip=1 / chroma_qp_offset=-3 / threads=18 / lookahead_threads=3 / sliced_threads=0 / nr=0 / decimate=1 / interlaced=0 / bluray_compat=0 / constrained_intra=0 / bframes=8 / b_pyramid=2 / b_adapt=2 / b_bias=0 / direct=3 / weightb=1 / open_gop=0 / weightp=2 / keyint=250 / keyint_min=23 / scenecut=40 / intra_refresh=0 / rc_lookahead=60 / rc=crf / mbtree=1 / crf=20.5 / qcomp=0.60 / qpmin=0 / qpmax=69 / qpstep=4 / ip_ratio=1.40 / aq=3:0.50
  25. Language                                 : English
  26. Default                                  : Yes
  27. Forced                                   : No
  28. Color range                              : Limited
  29. Matrix coefficients                      : BT.709

  30. Audio #1
  31. ID                                       : 2
  32. Format                                   : FLAC
  33. Format/Info                              : Free Lossless Audio Codec
  34. Codec ID                                 : A_FLAC
  35. Duration                                 : 1 h 35 min
  36. Bit rate mode                            : Variable
  37. Bit rate                                 : 571 kb/s
  38. Channel(s)                               : 1 channel
  39. Channel layout                           : C
  40. Sampling rate                            : 48.0 kHz
  41. Frame rate                               : 11.719 FPS (4096 SPF)
  42. Bit depth                                : 24 bits
  43. Compression mode                         : Lossless
  44. Stream size                              : 391 MiB (3%)
  45. Writing library                          : libFLAC 1.2.1 (UTC 2007-09-17)
  46. Language                                 : English
  47. Default                                  : Yes
  48. Forced                                   : No

  49. Audio #2
  50. ID                                       : 3
  51. Format                                   : AAC LC
  52. Format/Info                              : Advanced Audio Codec Low Complexity
  53. Codec ID                                 : A_AAC-2
  54. Duration                                 : 1 h 35 min
  55. Bit rate                                 : 83.4 kb/s
  56. Channel(s)                               : 2 channels
  57. Channel layout                           : L R
  58. Sampling rate                            : 48.0 kHz
  59. Frame rate                               : 46.875 FPS (1024 SPF)
  60. Compression mode                         : Lossy
  61. Delay relative to video                  : 9 ms
  62. Stream size                              : 57.1 MiB (0%)
  63. Title                                    : English Commentary by Jim Hemphill
  64. Language                                 : English
  65. Default                                  : No
  66. Forced                                   : No

  67. Text #1
  68. ID                                       : 4
  69. Format                                   : UTF-8
  70. Codec ID                                 : S_TEXT/UTF8
  71. Codec ID/Info                            : UTF-8 Plain Text
  72. Duration                                 : 1 h 33 min
  73. Bit rate                                 : 72 b/s
  74. Count of elements                        : 1332
  75. Stream size                              : 50.2 KiB (0%)
  76. Title                                    : English
  77. Language                                 : English
  78. Default                                  : No
  79. Forced                                   : No

  80. Text #2
  81. ID                                       : 5
  82. Format                                   : UTF-8
  83. Codec ID                                 : S_TEXT/UTF8
  84. Codec ID/Info                            : UTF-8 Plain Text
  85. Duration                                 : 1 h 33 min
  86. Bit rate                                 : 74 b/s
  87. Count of elements                        : 1381
  88. Stream size                              : 51.3 KiB (0%)
  89. Title                                    : English SDH
  90. Language                                 : English
  91. Default                                  : No
  92. Forced                                   : No

  93. Text #3
  94. ID                                       : 6
  95. Format                                   : PGS
  96. Muxing mode                              : zlib
  97. Codec ID                                 : S_HDMV/PGS
  98. Codec ID/Info                            : Picture based subtitle format used on BDs/HD-DVDs
  99. Duration                                 : 1 h 33 min
  100. Bit rate                                 : 16.7 kb/s
  101. Count of elements                        : 2762
  102. Stream size                              : 11.2 MiB (0%)
  103. Title                                    : English SDH
  104. Language                                 : English
  105. Default                                  : No
  106. Forced                                   : No

  107. Menu
  108. 00:00:00.000                             : en:00:00:00.000
  109. 00:09:16.222                             : en:00:09:16.222
  110. 00:19:05.478                             : en:00:19:05.478
  111. 00:28:04.016                             : en:00:28:04.016
  112. 00:37:46.973                             : en:00:37:46.973
  113. 00:44:06.561                             : en:00:44:06.561
  114. 00:54:46.658                             : en:00:54:46.658
  115. 01:00:11.650                             : en:01:00:11.650
  116. 01:10:09.747                             : en:01:10:09.747
  117. 01:18:24.158                             : en:01:18:24.158
复制代码

《三更天 Johnny.OClock.1947.1080p.BluRay.x264-USURY 14.38GB》迅雷下载_BT种子下载_蓝光高清 - 蓝光电影 ...

《三更天 Johnny.OClock.1947.1080p.BluRay.x264-USURY 14.38GB》迅雷下载_BT种子下载_蓝光高清 - 蓝光电影 ...



蓝光高清网提示您 点击下方附件即可下载

《三更天 Johnny.OClock.1947.1080p.BluRay.x264-USURY 14.38GB》迅雷下载_BT种子下载_蓝光高清 - 蓝光电影网

Johnny.OClock.1947.1080p.BluRay.x264-USURY.torrent ( 18.71 KB )

加入蓝光高清网VIP会员  无限制下载本站所有资源---点这里

资源下载、资源播放、字幕使用、无法下载等常见问题---点这里
回复

使用道具 举报

全部回复1 显示全部楼层
wangzhang3手机认证 发表于 4 天前 | 显示全部楼层
楼主辛苦了,谢谢分享
回复 支持 反对

使用道具 举报

发表回复

您需要登录后才可以回帖 登录 | 立即注册

本版积分规则

联系客服 关注微信 下载APP 返回顶部 返回列表