蓝光高清网

搜索
开启左侧

[恐怖] 《鬼哭神嚎7 Amityville.A.New.Generation.1993.1080p.BluRay.x264-GAZER 7.72GB》迅雷下载_BT种子下载_蓝光高清 - 蓝光电影网

蓝鸟 发表于 2022-8-5 21:46:28 | 显示全部楼层 |阅读模式

《鬼哭神嚎7 Amityville.A.New.Generation.1993.1080p.BluRay.x264-GAZER 7.72GB》迅雷下载_BT种子下载_蓝 ...

《鬼哭神嚎7 Amityville.A.New.Generation.1993.1080p.BluRay.x264-GAZER 7.72GB》迅雷下载_BT种子下载_蓝 ...


标  题 鬼哭神嚎7
译  名 魂飞魄散
片  名 Amityville: A New Generation
年  代 1993
产  地 美国
类  别 恐怖
语  言 英语
上映日期 1993-08-07
IMDb评分 3.8/10 (1977人评价)
片  长 90 分钟
演  员 林·沙烨 Lin Shaye
       Barbara Howard Barbara Howard
标  签 恐怖 / 美国 / 美国电影 / 电影 / 犯罪 / 灵异 / 林·沙烨 / 惊悚

简  介

An old mirror from the haunted Long Island house finds its way into a photographer''s family where the evil soon manifests itself to cause more terror and mayhem.


影片参数
  1. Video
  2. ID                                       : 1
  3. Format                                   : AVC
  4. Format/Info                              : Advanced Video Codec
  5. Format profile                           : [email protected]
  6. Format settings                          : CABAC / 4 Ref Frames
  7. Format settings, CABAC                   : Yes
  8. Format settings, Reference frames        : 4 frames
  9. Codec ID                                 : V_MPEG4/ISO/AVC
  10. Duration                                 : 1 h 31 min
  11. Bit rate                                 : 11.4 Mb/s
  12. Width                                    : 1 920 pixels
  13. Height                                   : 1 080 pixels
  14. Display aspect ratio                     : 16:9
  15. Frame rate mode                          : Constant
  16. Frame rate                               : 24.000 FPS
  17. Color space                              : YUV
  18. Chroma subsampling                       : 4:2:0
  19. Bit depth                                : 8 bits
  20. Scan type                                : Progressive
  21. Bits/(Pixel*Frame)                       : 0.229
  22. Stream size                              : 7.25 GiB (94%)
  23. Writing library                          : x264 core 164 r3095 baee400
  24. Encoding settings                        : cabac=1 / ref=4 / deblock=1:-3:-3 / analyse=0x3:0x133 / me=umh / subme=10 / psy=1 / psy_rd=1.20:0.00 / mixed_ref=1 / me_range=24 / chroma_me=1 / trellis=2 / 8x8dct=1 / cqm=0 / deadzone=21,11 / fast_pskip=0 / chroma_qp_offset=-2 / threads=24 / lookahead_threads=4 / sliced_threads=0 / nr=0 / decimate=0 / interlaced=0 / bluray_compat=0 / constrained_intra=0 / bframes=8 / b_pyramid=2 / b_adapt=2 / b_bias=0 / direct=3 / weightb=1 / open_gop=0 / weightp=2 / keyint=250 / keyint_min=24 / scenecut=40 / intra_refresh=0 / rc_lookahead=60 / rc=crf / mbtree=1 / crf=20.5 / qcomp=0.60 / qpmin=0 / qpmax=69 / qpstep=4 / ip_ratio=1.40 / aq=3:0.90
  25. Default                                  : Yes
  26. Forced                                   : No
  27. Color range                              : Limited
  28. Matrix coefficients                      : BT.709

  29. Audio
  30. ID                                       : 2
  31. Format                                   : FLAC
  32. Format/Info                              : Free Lossless Audio Codec
  33. Codec ID                                 : A_FLAC
  34. Duration                                 : 1 h 31 min
  35. Bit rate mode                            : Variable
  36. Bit rate                                 : 727 kb/s
  37. Channel(s)                               : 2 channels
  38. Channel layout                           : L R
  39. Sampling rate                            : 48.0 kHz
  40. Frame rate                               : 11.719 FPS (4096 SPF)
  41. Bit depth                                : 16 bits
  42. Compression mode                         : Lossless
  43. Stream size                              : 475 MiB (6%)
  44. Writing library                          : libFLAC 1.3.3 (UTC 2019-08-04)
  45. Language                                 : English
  46. Default                                  : Yes
  47. Forced                                   : No

  48. Text
  49. ID                                       : 3
  50. Format                                   : PGS
  51. Muxing mode                              : zlib
  52. Codec ID                                 : S_HDMV/PGS
  53. Codec ID/Info                            : Picture based subtitle format used on BDs/HD-DVDs
  54. Duration                                 : 1 h 31 min
  55. Bit rate                                 : 17.6 kb/s
  56. Count of elements                        : 1897
  57. Stream size                              : 11.5 MiB (0%)
  58. Title                                    : SDH
  59. Language                                 : English
  60. Default                                  : No
  61. Forced                                   : No

  62. Menu
  63. 00:00:00.000                             : Chapter 01
  64. 00:10:55.958                             : Chapter 02
  65. 00:21:22.458                             : Chapter 03
  66. 00:35:49.000                             : Chapter 04
  67. 00:46:04.042                             : Chapter 05
  68. 00:54:23.542                             : Chapter 06
  69. 01:05:36.708                             : Chapter 07
  70. 01:22:50.500                             : Chapter 08
  71. 01:31:15.125                             : Chapter 09
复制代码

《鬼哭神嚎7 Amityville.A.New.Generation.1993.1080p.BluRay.x264-GAZER 7.72GB》迅雷下载_BT种子下载_蓝 ...

《鬼哭神嚎7 Amityville.A.New.Generation.1993.1080p.BluRay.x264-GAZER 7.72GB》迅雷下载_BT种子下载_蓝 ...



蓝光高清网提示您 点击下方附件即可下载

《鬼哭神嚎7 Amityville.A.New.Generation.1993.1080p.BluRay.x264-GAZER 7.72GB》迅雷下载_BT种子下载_蓝光高清 - 蓝光电影网

Amityville.A.New.Generation.1993.1080p.BluRay.x264-GAZER.torrent ( 20.07 KB )

加入蓝光高清网VIP会员  无限制下载本站所有资源---点这里

资源下载、资源播放、字幕使用、无法下载等常见问题---点这里
回复

使用道具 举报

全部回复0 显示全部楼层

发表回复

您需要登录后才可以回帖 登录 | 立即注册

本版积分规则

联系客服 关注微信 下载APP 返回顶部 返回列表