蓝光高清网

搜索
开启左侧

[恐怖] 《鬼哭神嚎4阴魂不散 Amityville.Horror.The.Evil.Escapes.1989.1080p.BluRay.x264-GAZER 8.36GB》迅雷下载_BT种子下载_蓝光高清 - 蓝光电影网

蓝鸟 发表于 2022-8-5 21:47:19 | 显示全部楼层 |阅读模式

《鬼哭神嚎4阴魂不散 Amityville.Horror.The.Evil.Escapes.1989.1080p.BluRay.x264-GAZER 8.36GB》迅雷下载 ...

《鬼哭神嚎4阴魂不散 Amityville.Horror.The.Evil.Escapes.1989.1080p.BluRay.x264-GAZER 8.36GB》迅雷下载 ...


标  题 鬼哭神嚎4阴魂不散
译  名 Amityville 4: The Evil Escapes / Amityville IV: The Evil Escapes
片  名 Amityville Horror: The Evil Escapes
年  代 1989
产  地 美国
类  别 恐怖
语  言 英语
上映日期 1989-05-12(美国)
IMDb评分 4.3/10 (2835人评价)
导  演 桑道尔·史顿 Sandor Stern
编  剧 桑道尔·史顿 Sandor Stern
演  员 帕蒂·杜克 Patty Duke
       简·维亚特 Jane Wyatt
       弗瑞德里克·林恩 Fredric Lehne
       Brandy Gold Brandy Gold
       Jack Rader Jack Rader
       佩吉·麦卡 Peggy McCay
       诺曼·劳埃德 Norman Lloyd
       Aron Eisenberg Aron Eisenberg
       格洛丽亚·克伦威尔 Gloria Cromwell
       桑道尔·史顿 Sandor Stern
       Kenneth Atchity Kenneth Atchity
       汤姆·里士满 Tom Richmond

简  介

The demonic forces in the haunted Long Island house escape through a mystical lamp which finds its way to a remote California mansion where the evil manipulates a little girl by manifesting itself in the form of her dead father.


影片参数
  1. Video
  2. ID                                       : 1
  3. Format                                   : AVC
  4. Format/Info                              : Advanced Video Codec
  5. Format profile                           : [email protected]
  6. Format settings                          : CABAC / 4 Ref Frames
  7. Format settings, CABAC                   : Yes
  8. Format settings, Reference frames        : 4 frames
  9. Codec ID                                 : V_MPEG4/ISO/AVC
  10. Duration                                 : 1 h 35 min
  11. Bit rate                                 : 11.7 Mb/s
  12. Width                                    : 1 920 pixels
  13. Height                                   : 1 080 pixels
  14. Display aspect ratio                     : 16:9
  15. Frame rate mode                          : Constant
  16. Frame rate                               : 24.000 FPS
  17. Color space                              : YUV
  18. Chroma subsampling                       : 4:2:0
  19. Bit depth                                : 8 bits
  20. Scan type                                : Progressive
  21. Bits/(Pixel*Frame)                       : 0.235
  22. Stream size                              : 7.78 GiB (93%)
  23. Writing library                          : x264 core 164 r3095 baee400
  24. Encoding settings                        : cabac=1 / ref=4 / deblock=1:-3:-3 / analyse=0x3:0x133 / me=umh / subme=10 / psy=1 / psy_rd=1.20:0.00 / mixed_ref=1 / me_range=24 / chroma_me=1 / trellis=2 / 8x8dct=1 / cqm=0 / deadzone=21,11 / fast_pskip=0 / chroma_qp_offset=-2 / threads=24 / lookahead_threads=4 / sliced_threads=0 / nr=0 / decimate=0 / interlaced=0 / bluray_compat=0 / constrained_intra=0 / bframes=8 / b_pyramid=2 / b_adapt=2 / b_bias=0 / direct=3 / weightb=1 / open_gop=0 / weightp=2 / keyint=250 / keyint_min=24 / scenecut=40 / intra_refresh=0 / rc_lookahead=60 / rc=crf / mbtree=1 / crf=20.0 / qcomp=0.60 / qpmin=0 / qpmax=69 / qpstep=4 / ip_ratio=1.40 / aq=3:0.90
  25. Default                                  : Yes
  26. Forced                                   : No
  27. Color range                              : Limited
  28. Matrix coefficients                      : BT.709

  29. Audio #1
  30. ID                                       : 2
  31. Format                                   : FLAC
  32. Format/Info                              : Free Lossless Audio Codec
  33. Codec ID                                 : A_FLAC
  34. Duration                                 : 1 h 35 min
  35. Bit rate mode                            : Variable
  36. Bit rate                                 : 761 kb/s
  37. Channel(s)                               : 2 channels
  38. Channel layout                           : L R
  39. Sampling rate                            : 48.0 kHz
  40. Frame rate                               : 11.719 FPS (4096 SPF)
  41. Bit depth                                : 16 bits
  42. Compression mode                         : Lossless
  43. Stream size                              : 518 MiB (6%)
  44. Writing library                          : libFLAC 1.3.3 (UTC 2019-08-04)
  45. Language                                 : English
  46. Default                                  : Yes
  47. Forced                                   : No

  48. Audio #2
  49. ID                                       : 3
  50. Format                                   : AAC LC
  51. Format/Info                              : Advanced Audio Codec Low Complexity
  52. Codec ID                                 : A_AAC-2
  53. Duration                                 : 1 h 35 min
  54. Bit rate                                 : 101 kb/s
  55. Channel(s)                               : 2 channels
  56. Channel layout                           : L R
  57. Sampling rate                            : 48.0 kHz
  58. Frame rate                               : 46.875 FPS (1024 SPF)
  59. Compression mode                         : Lossy
  60. Delay relative to video                  : 20 ms
  61. Stream size                              : 68.4 MiB (1%)
  62. Title                                    : Commentary
  63. Language                                 : English
  64. Default                                  : No
  65. Forced                                   : No

  66. Text
  67. ID                                       : 4
  68. Format                                   : PGS
  69. Muxing mode                              : zlib
  70. Codec ID                                 : S_HDMV/PGS
  71. Codec ID/Info                            : Picture based subtitle format used on BDs/HD-DVDs
  72. Duration                                 : 1 h 35 min
  73. Bit rate                                 : 22.4 kb/s
  74. Count of elements                        : 2154
  75. Stream size                              : 15.2 MiB (0%)
  76. Title                                    : SDH
  77. Language                                 : English
  78. Default                                  : No
  79. Forced                                   : No

  80. Menu
  81. 00:00:00.000                             : Chapter 01
  82. 00:14:18.750                             : Chapter 02
  83. 00:23:25.958                             : Chapter 03
  84. 00:33:08.000                             : Chapter 04
  85. 00:44:41.625                             : Chapter 05
  86. 00:54:24.333                             : Chapter 06
  87. 01:06:17.458                             : Chapter 07
  88. 01:18:53.542                             : Chapter 08
  89. 01:35:04.875                             : Chapter 09
复制代码

《鬼哭神嚎4阴魂不散 Amityville.Horror.The.Evil.Escapes.1989.1080p.BluRay.x264-GAZER 8.36GB》迅雷下载 ...

《鬼哭神嚎4阴魂不散 Amityville.Horror.The.Evil.Escapes.1989.1080p.BluRay.x264-GAZER 8.36GB》迅雷下载 ...



蓝光高清网提示您 点击下方附件即可下载

《鬼哭神嚎4阴魂不散 Amityville.Horror.The.Evil.Escapes.1989.1080p.BluRay.x264-GAZER 8.36GB》迅雷下载_BT种子下载_蓝光高清 - 蓝光电影网

Amityville.Horror.The.Evil.Escapes.1989.1080p.BluRay.x264-GAZER.torrent ( 21.7 KB )

加入蓝光高清网VIP会员  无限制下载本站所有资源---点这里

资源下载、资源播放、字幕使用、无法下载等常见问题---点这里
回复

使用道具 举报

全部回复1 显示全部楼层
wangzhang3手机认证 发表于 2022-8-7 20:28:24 | 显示全部楼层
支持发片,谢谢分享
回复 支持 反对

使用道具 举报

发表回复

您需要登录后才可以回帖 登录 | 立即注册

本版积分规则

联系客服 关注微信 下载APP 返回顶部 返回列表