本站已运行

蓝光高清网

搜索
开启左侧

[剧情片] 《未来罪行 Crimes.of.the.Future.2022.1080p.BluRay.REMUX.AVC.DTS-HD.MA.5.1-FGT 29.23GB》迅雷下载_4kii.com网 - 4kii.com

蓝鸟 发表于 2022-8-11 09:42:19 | 显示全部楼层 |阅读模式

《未来罪行 Crimes.of.the.Future.2022.1080p.BluRay.REMUX.AVC.DTS-HD.MA.5.1-FGT 29.23GB》迅雷下载_BT种 ...

《未来罪行 Crimes.of.the.Future.2022.1080p.BluRay.REMUX.AVC.DTS-HD.MA.5.1-FGT 29.23GB》迅雷下载_BT种 ...


译  名 未来罪行 / 犯罪档案 / 后人类罪行(港) / 未来犯罪(台)
片  名 Crimes of the Future
年  代 2022
产  地 加拿大 / 法国 / 希腊 / 英国
类  别 剧情 / 科幻 / 恐怖
语  言 英语
上映日期 2022-05-23(戛纳电影节) / 2022-05-25(法国)
豆瓣评分 6.3/10 (12781人评价)
片  长 107分钟
导  演 大卫·柯南伯格 David Cronenberg
编  剧 大卫·柯南伯格 David Cronenberg
演  员 维果·莫腾森 Viggo Mortensen
       蕾雅·赛杜 Léa Seydoux
       克里斯汀·斯图尔特 Kristen Stewart
       斯科特·斯比德曼 Scott Speedman
       韦尔凯特·邦盖 Welket Bungué
       唐·麦凯勒 Don McKellar
       约戈斯·皮尔帕索珀罗斯 Yorgos Pirpassopoulos
       塔娜亚·比蒂 Tanaya Beatty
       娜迪亚·利茨 Nadia Litz
       莉希·科诺夫斯基 Lihi Kornowski
       丹尼斯·卡佩扎 Denise Capezza  
       索佐斯·索蒂里斯 Sozos Sotiris  
       埃菲·坎查 Ephie Kantza  
       杰森·比特 Jason Bitter  
       皮内洛皮·提斯丽卡 Pinelopi Tsilika
       桥格斯·卡拉米霍斯 Giorgos Karamihos
       霍华德·肖 Howard Shore
        Akalanka Ekanayake
       Douglas Koch Douglas Koch

简  介

人类越来越适应合成环境,人体也开始成为加工的对象,迎来了新的变形。                                    
                                Saul Tenser(Viggo Mortensen饰演)是一位知名的行为艺术家。在助理Caprice(Léa Seydoux饰演)的协助下,他开始通过一些先锋前卫的表演来展示自己器官变形的场面。                                    
                                Timlin(Kristen Stewart饰演)是一名来自国家器官登记处的调查员,密切关注着两人的一举一动。                                    
                                此时出现了一个神秘的组织,他们希望利用Saul的声誉,向世人展示人类进化的下一个阶段……


获奖情况 (共1项)

第75届戛纳电影节 (2022)
  主竞赛单元 金棕榈奖(提名)
   └──大卫·柯南伯格


影片参数
  1. Video
  2. ID                                       : 1
  3. ID in the original source medium         : 4113 (0x1011)
  4. Format                                   : AVC
  5. Format/Info                              : Advanced Video Codec
  6. Format profile                           : [email protected]
  7. Format settings                          : CABAC / 4 Ref Frames
  8. Format settings, CABAC                   : Yes
  9. Format settings, Reference frames        : 4 frames
  10. Codec ID                                 : V_MPEG4/ISO/AVC
  11. Duration                                 : 1 h 47 min
  12. Bit rate mode                            : Variable
  13. Bit rate                                 : 35.5 Mb/s
  14. Maximum bit rate                         : 39.0 Mb/s
  15. Width                                    : 1 920 pixels
  16. Height                                   : 1 080 pixels
  17. Display aspect ratio                     : 16:9
  18. Frame rate mode                          : Constant
  19. Frame rate                               : 23.976 (24000/1001/189150) FPS
  20. Color space                              : YUV
  21. Chroma subsampling                       : 4:2:0
  22. Bit depth                                : 8 bits
  23. Scan type                                : Progressive
  24. Bits/(Pixel*Frame)                       : 0.713
  25. Stream size                              : 26.6 GiB (91%)
  26. Language                                 : English
  27. Default                                  : No
  28. Forced                                   : No
  29. Original source medium                   : Blu-ray
  30. Audio
  31. ID                                       : 2
  32. ID in the original source medium         : 4352 (0x1100)
  33. Format                                   : DTS XLL
  34. Format/Info                              : Digital Theater Systems
  35. Commercial name                          : DTS-HD Master Audio
  36. Codec ID                                 : A_DTS
  37. Duration                                 : 1 h 47 min
  38. Bit rate mode                            : Variable
  39. Bit rate                                 : 3 429 kb/s
  40. Channel(s)                               : 6 channels
  41. Channel layout                           : C L R Ls Rs LFE
  42. Sampling rate                            : 48.0 kHz
  43. Frame rate                               : 93.750 FPS (512 SPF)
  44. Bit depth                                : 24 bits
  45. Compression mode                         : Lossless
  46. Stream size                              : 2.58 GiB (9%)
  47. Title                                    : DTS-HD MA 5.1
  48. Language                                 : English
  49. Default                                  : Yes
  50. Forced                                   : No
  51. Original source medium                   : Blu-ray
  52. Text #1
  53. ID                                       : 3
  54. Format                                   : UTF-8
  55. Codec ID                                 : S_TEXT/UTF8
  56. Codec ID/Info                            : UTF-8 Plain Text
  57. Duration                                 : 1 h 37 min
  58. Bit rate                                 : 48 b/s
  59. Frame rate                               : 0.233 FPS
  60. Count of elements                        : 1361
  61. Stream size                              : 34.7 KiB (0%)
  62. Language                                 : English
  63. Default                                  : Yes
  64. Forced                                   : No
  65. Text #2
  66. ID                                       : 4
  67. Format                                   : UTF-8
  68. Codec ID                                 : S_TEXT/UTF8
  69. Codec ID/Info                            : UTF-8 Plain Text
  70. Duration                                 : 1 h 41 min
  71. Bit rate                                 : 55 b/s
  72. Frame rate                               : 0.291 FPS
  73. Count of elements                        : 1765
  74. Stream size                              : 41.5 KiB (0%)
  75. Title                                    : SDH
  76. Language                                 : English
  77. Default                                  : No
  78. Forced                                   : No
  79. Text #3
  80. ID                                       : 5
  81. ID in the original source medium         : 4608 (0x1200)
  82. Format                                   : PGS
  83. Muxing mode                              : zlib
  84. Codec ID                                 : S_HDMV/PGS
  85. Codec ID/Info                            : Picture based subtitle format used on BDs/HD-DVDs
  86. Duration                                 : 1 h 41 min
  87. Bit rate                                 : 25.9 kb/s
  88. Frame rate                               : 0.601 FPS
  89. Count of elements                        : 3648
  90. Stream size                              : 18.8 MiB (0%)
  91. Language                                 : English
  92. Default                                  : No
  93. Forced                                   : No
  94. Original source medium                   : Blu-ray
  95. Menu
  96. 00:00:00.000                             : en:Chapter 01
  97. 00:12:58.778                             : en:Chapter 02
  98. 00:27:13.340                             : en:Chapter 03
  99. 00:44:55.484                             : en:Chapter 04
  100. 00:59:43.079                             : en:Chapter 05
  101. 01:15:11.965                             : en:Chapter 06
  102. 01:26:14.836                             : en:Chapter 07
  103. 01:41:09.438                             : en:Chapter 08
复制代码



蓝光高清网提示您 点击下方附件即可下载

《未来罪行 Crimes.of.the.Future.2022.1080p.BluRay.REMUX.AVC.DTS-HD.MA.5.1-FGT 29.23GB》迅雷下载_BT种子下载www.4kii.com - 蓝光高清网 4kii.com

Crimes.of.the.Future.2022.1080p.BluRay.REMUX.AVC.DTS-HD.MA.5.1-FGT.torrent ( 37.19 KB )

加入蓝光高清网VIP会员  无限制下载本站所有资源---点这里

资源下载、资源播放、字幕使用、无法下载等常见问题---点这里
回复

使用道具 举报

全部回复0 显示全部楼层

发表回复

您需要登录后才可以回帖 登录 | 立即注册

本版积分规则

开通会员 帮助中心 返回顶部 返回列表