本站已运行

蓝光高清网

搜索
开启左侧

[动作片] 《追踪 Last.Seen.Alive.2022.1080p.BluRay.REMUX.AVC.DTS-HD.MA.5.1-FGT 21.72GB》迅雷下载_4kii.com网 - 4kii.com

蓝鸟 发表于 2022-8-11 09:42:45 | 显示全部楼层 |阅读模式

《追踪 Last.Seen.Alive.2022.1080p.BluRay.REMUX.AVC.DTS-HD.MA.5.1-FGT 21.72GB》迅雷下载_BT种子下载_蓝 ...

《追踪 Last.Seen.Alive.2022.1080p.BluRay.REMUX.AVC.DTS-HD.MA.5.1-FGT 21.72GB》迅雷下载_BT种子下载_蓝 ...


译  名 追踪 / Chase
片  名 Last Seen Alive
年  代 2022
产  地 美国
类  别 动作 / 惊悚
语  言 英语
上映日期 2022-05-12(荷兰) / 2022-06-03(美国)
豆瓣评分 5.2/10 (1061人评价)
片  长 95分钟
导  演 布莱恩·古德曼 Brian Goodman
编  剧 马克·弗里德曼 Marc Frydman
演  员 杰拉德·巴特勒 Gerard Butler
       杰米·亚历山大 Jaimie Alexander
       罗素·霍恩斯比 Russell Hornsby
       迈克尔·埃尔比 Michael Irby
        Chip Lane
       布鲁斯·奥尔特曼 Bruce Altman
        Billy Burns
       伊桑·恩布里 Ethan Embry
       辛迪·霍根 Cindy Hogan
       阿方索·A·杰克逊 Alphonso A''Qen-Aten Jackson
       马修·R·斯特利 Matthew R. Staley
       罗伯特·沃克·布兰乔德 Robert Walker Branchaud

简  介

威尔·斯潘和妻子丽莎的婚姻已经到达黄昏。一天,当他们前往妻子父母家,路过一家加油站时,妻子竟然神秘失踪了。 这一切让威尔心急如焚,他让当地警察和丽莎的父母不顾一切地找到她,但随着时间的流逝,他成了妻子失踪案的最大嫌疑人...                                    
                                他必须亲自处理事情,在警察和犯罪双重夹击下,他能找到妻子吗?


影片参数
  1. Video
  2. ID                                       : 1
  3. ID in the original source medium         : 4113 (0x1011)
  4. Format                                   : AVC
  5. Format/Info                              : Advanced Video Codec
  6. Format profile                           : [email protected]
  7. Format settings                          : CABAC / 4 Ref Frames
  8. Format settings, CABAC                   : Yes
  9. Format settings, Reference frames        : 4 frames
  10. Codec ID                                 : V_MPEG4/ISO/AVC
  11. Duration                                 : 1 h 35 min
  12. Bit rate mode                            : Variable
  13. Bit rate                                 : 26.9 Mb/s
  14. Maximum bit rate                         : 38.0 Mb/s
  15. Width                                    : 1 920 pixels
  16. Height                                   : 1 080 pixels
  17. Display aspect ratio                     : 16:9
  18. Frame rate mode                          : Constant
  19. Frame rate                               : 23.976 (24000/1001/189150) FPS
  20. Color space                              : YUV
  21. Chroma subsampling                       : 4:2:0
  22. Bit depth                                : 8 bits
  23. Scan type                                : Progressive
  24. Bits/(Pixel*Frame)                       : 0.540
  25. Stream size                              : 17.9 GiB (82%)
  26. Language                                 : English
  27. Default                                  : No
  28. Forced                                   : No
  29. Original source medium                   : Blu-ray
  30. Audio #1
  31. ID                                       : 2
  32. ID in the original source medium         : 4352 (0x1100)
  33. Format                                   : DTS XLL
  34. Format/Info                              : Digital Theater Systems
  35. Commercial name                          : DTS-HD Master Audio
  36. Codec ID                                 : A_DTS
  37. Duration                                 : 1 h 35 min
  38. Bit rate mode                            : Variable
  39. Bit rate                                 : 3 777 kb/s
  40. Channel(s)                               : 6 channels
  41. Channel layout                           : C L R Ls Rs LFE
  42. Sampling rate                            : 48.0 kHz
  43. Frame rate                               : 93.750 FPS (512 SPF)
  44. Bit depth                                : 24 bits
  45. Compression mode                         : Lossless
  46. Stream size                              : 2.51 GiB (12%)
  47. Title                                    : DTS-HD MA 5.1
  48. Language                                 : English
  49. Default                                  : Yes
  50. Forced                                   : No
  51. Original source medium                   : Blu-ray
  52. Audio #2
  53. ID                                       : 3
  54. ID in the original source medium         : 4353 (0x1101)
  55. Format                                   : DTS XLL
  56. Format/Info                              : Digital Theater Systems
  57. Commercial name                          : DTS-HD Master Audio
  58. Codec ID                                 : A_DTS
  59. Duration                                 : 1 h 35 min
  60. Bit rate mode                            : Variable
  61. Bit rate                                 : 2 011 kb/s
  62. Channel(s)                               : 2 channels
  63. Channel layout                           : L R
  64. Sampling rate                            : 48.0 kHz
  65. Frame rate                               : 93.750 FPS (512 SPF)
  66. Bit depth                                : 24 bits
  67. Compression mode                         : Lossless
  68. Stream size                              : 1.34 GiB (6%)
  69. Title                                    : DTS-HD MA 2.0
  70. Language                                 : English
  71. Default                                  : No
  72. Forced                                   : No
  73. Original source medium                   : Blu-ray
  74. Text #1
  75. ID                                       : 4
  76. Format                                   : UTF-8
  77. Codec ID                                 : S_TEXT/UTF8
  78. Codec ID/Info                            : UTF-8 Plain Text
  79. Duration                                 : 1 h 28 min
  80. Bit rate                                 : 59 b/s
  81. Frame rate                               : 0.230 FPS
  82. Count of elements                        : 1213
  83. Stream size                              : 38.3 KiB (0%)
  84. Language                                 : English
  85. Default                                  : Yes
  86. Forced                                   : No
  87. Text #2
  88. ID                                       : 5
  89. Format                                   : UTF-8
  90. Codec ID                                 : S_TEXT/UTF8
  91. Codec ID/Info                            : UTF-8 Plain Text
  92. Duration                                 : 1 h 30 min
  93. Bit rate                                 : 64 b/s
  94. Frame rate                               : 0.265 FPS
  95. Count of elements                        : 1446
  96. Stream size                              : 42.9 KiB (0%)
  97. Title                                    : SDH
  98. Language                                 : English
  99. Default                                  : No
  100. Forced                                   : No
  101. Text #3
  102. ID                                       : 6
  103. ID in the original source medium         : 4608 (0x1200)
  104. Format                                   : PGS
  105. Muxing mode                              : zlib
  106. Codec ID                                 : S_HDMV/PGS
  107. Codec ID/Info                            : Picture based subtitle format used on BDs/HD-DVDs
  108. Duration                                 : 1 h 30 min
  109. Bit rate                                 : 32.1 kb/s
  110. Frame rate                               : 0.542 FPS
  111. Count of elements                        : 2954
  112. Stream size                              : 20.8 MiB (0%)
  113. Language                                 : English
  114. Default                                  : No
  115. Forced                                   : No
  116. Original source medium                   : Blu-ray
  117. Menu
  118. 00:00:00.000                             : en:Chapter 01
  119. 00:12:55.858                             : en:Chapter 02
  120. 00:23:46.133                             : en:Chapter 03
  121. 00:35:27.208                             : en:Chapter 04
  122. 00:46:04.428                             : en:Chapter 05
  123. 00:54:33.895                             : en:Chapter 06
  124. 01:05:13.159                             : en:Chapter 07
  125. 01:15:30.275                             : en:Chapter 08
  126. 01:35:11.956                             : en:Chapter 09
复制代码

《追踪 Last.Seen.Alive.2022.1080p.BluRay.REMUX.AVC.DTS-HD.MA.5.1-FGT 21.72GB》迅雷下载_BT种子下载_蓝 ...

《追踪 Last.Seen.Alive.2022.1080p.BluRay.REMUX.AVC.DTS-HD.MA.5.1-FGT 21.72GB》迅雷下载_BT种子下载_蓝 ...

《追踪 Last.Seen.Alive.2022.1080p.BluRay.REMUX.AVC.DTS-HD.MA.5.1-FGT 21.72GB》迅雷下载_BT种子下载_蓝 ...

《追踪 Last.Seen.Alive.2022.1080p.BluRay.REMUX.AVC.DTS-HD.MA.5.1-FGT 21.72GB》迅雷下载_BT种子下载_蓝 ...



蓝光高清网提示您 点击下方附件即可下载

《追踪 Last.Seen.Alive.2022.1080p.BluRay.REMUX.AVC.DTS-HD.MA.5.1-FGT 21.72GB》迅雷下载_BT种子下载www.4kii.com - 蓝光高清网 4kii.com

Last.Seen.Alive.2022.1080p.BluRay.REMUX.AVC.DTS-HD.MA.5.1-FGT.torrent ( 27.81 KB )

加入蓝光高清网VIP会员  无限制下载本站所有资源---点这里

资源下载、资源播放、字幕使用、无法下载等常见问题---点这里
回复

使用道具 举报

全部回复0 显示全部楼层

发表回复

您需要登录后才可以回帖 登录 | 立即注册

本版积分规则

开通会员 帮助中心 返回顶部 返回列表