本站已运行

蓝光高清网

搜索
开启左侧

[剧情片] 《报丧女妖 Code.Name.Banshee.2022.1080p.BluRay.REMUX.AVC.DTS-HD.MA.5.1-FGT 20.89GB》迅雷下载_4kii.com网 - 4kii.com

蓝鸟 发表于 2022-8-11 09:43:12 | 显示全部楼层 |阅读模式

《报丧女妖 Code.Name.Banshee.2022.1080p.BluRay.REMUX.AVC.DTS-HD.MA.5.1-FGT 20.89GB》迅雷下载_BT种子 ...

《报丧女妖 Code.Name.Banshee.2022.1080p.BluRay.REMUX.AVC.DTS-HD.MA.5.1-FGT 20.89GB》迅雷下载_BT种子 ...


译  名 报丧女妖 / Banshee
片  名 Code Name Banshee
年  代 2022
产  地 美国
类  别 剧情 / 动作 / 惊悚
语  言 英语
上映日期 2022-07-01(美国)
豆瓣评分 4.1/10 (288人评价)
导  演 强·基耶斯 Jon Keeyes
演  员 安东尼奥·班德拉斯 Antonio Banderas
       杰米·金 Jaime King
       汤米·弗拉纳根 Tommy Flanagan
       凯特·希金斯 Kate Higgins
       韦恩·派尔 Wayne Pyle
       亚历山大·维舍尔鲍默 Aleksander Vayshelboym

简  介

这是一个关于复仇和家庭的复杂故事,讲述的是自由职业杀手女妖被杀死父亲的雇佣兵伏击的故事。


影片参数
  1. Video
  2. ID                                       : 1
  3. ID in the original source medium         : 4113 (0x1011)
  4. Format                                   : AVC
  5. Format/Info                              : Advanced Video Codec
  6. Format profile                           : [email protected]
  7. Format settings                          : CABAC / 4 Ref Frames
  8. Format settings, CABAC                   : Yes
  9. Format settings, Reference frames        : 4 frames
  10. Format settings, GOP                     : M=3, N=12
  11. Codec ID                                 : V_MPEG4/ISO/AVC
  12. Duration                                 : 1 h 32 min
  13. Bit rate mode                            : Variable
  14. Bit rate                                 : 26.0 Mb/s
  15. Maximum bit rate                         : 32.5 Mb/s
  16. Width                                    : 1 920 pixels
  17. Height                                   : 1 080 pixels
  18. Display aspect ratio                     : 16:9
  19. Frame rate mode                          : Constant
  20. Frame rate                               : 23.976 (24000/1001/189150) FPS
  21. Standard                                 : NTSC
  22. Color space                              : YUV
  23. Chroma subsampling                       : 4:2:0
  24. Bit depth                                : 8 bits
  25. Scan type                                : Progressive
  26. Bits/(Pixel*Frame)                       : 0.524
  27. Stream size                              : 16.9 GiB (81%)
  28. Language                                 : English
  29. Default                                  : No
  30. Forced                                   : No
  31. Color range                              : Limited
  32. Color primaries                          : BT.709
  33. Transfer characteristics                 : BT.709
  34. Matrix coefficients                      : BT.709
  35. Original source medium                   : Blu-ray
  36. Audio #1
  37. ID                                       : 2
  38. ID in the original source medium         : 4352 (0x1100)
  39. Format                                   : DTS XLL
  40. Format/Info                              : Digital Theater Systems
  41. Commercial name                          : DTS-HD Master Audio
  42. Codec ID                                 : A_DTS
  43. Duration                                 : 1 h 32 min
  44. Bit rate mode                            : Variable
  45. Bit rate                                 : 3 817 kb/s
  46. Channel(s)                               : 6 channels
  47. Channel layout                           : C L R Ls Rs LFE
  48. Sampling rate                            : 48.0 kHz
  49. Frame rate                               : 93.750 FPS (512 SPF)
  50. Bit depth                                : 24 bits
  51. Compression mode                         : Lossless
  52. Stream size                              : 2.48 GiB (12%)
  53. Title                                    : DTS-HD MA 5.1
  54. Language                                 : English
  55. Default                                  : Yes
  56. Forced                                   : No
  57. Original source medium                   : Blu-ray
  58. Audio #2
  59. ID                                       : 3
  60. ID in the original source medium         : 4353 (0x1101)
  61. Format                                   : PCM
  62. Format settings                          : Little / Signed
  63. Codec ID                                 : A_PCM/INT/LIT
  64. Duration                                 : 1 h 32 min
  65. Bit rate mode                            : Constant
  66. Bit rate                                 : 2 304 kb/s
  67. Channel(s)                               : 2 channels
  68. Sampling rate                            : 48.0 kHz
  69. Frame rate                               : 30.000 FPS (1600 SPF)
  70. Bit depth                                : 24 bits
  71. Stream size                              : 1.49 GiB (7%)
  72. Title                                    : LPCM 2.0
  73. Language                                 : English
  74. Default                                  : No
  75. Forced                                   : No
  76. Original source medium                   : Blu-ray
  77. Text #1
  78. ID                                       : 4
  79. Format                                   : UTF-8
  80. Codec ID                                 : S_TEXT/UTF8
  81. Codec ID/Info                            : UTF-8 Plain Text
  82. Duration                                 : 1 h 31 min
  83. Bit rate                                 : 39 b/s
  84. Frame rate                               : 0.172 FPS
  85. Count of elements                        : 946
  86. Stream size                              : 26.5 KiB (0%)
  87. Language                                 : English
  88. Default                                  : Yes
  89. Forced                                   : No
  90. Text #2
  91. ID                                       : 5
  92. Format                                   : UTF-8
  93. Codec ID                                 : S_TEXT/UTF8
  94. Codec ID/Info                            : UTF-8 Plain Text
  95. Duration                                 : 1 h 32 min
  96. Bit rate                                 : 44 b/s
  97. Frame rate                               : 0.203 FPS
  98. Count of elements                        : 1125
  99. Stream size                              : 29.9 KiB (0%)
  100. Title                                    : SDH
  101. Language                                 : English
  102. Default                                  : No
  103. Forced                                   : No
  104. Text #3
  105. ID                                       : 6
  106. ID in the original source medium         : 4608 (0x1200)
  107. Format                                   : PGS
  108. Muxing mode                              : zlib
  109. Codec ID                                 : S_HDMV/PGS
  110. Codec ID/Info                            : Picture based subtitle format used on BDs/HD-DVDs
  111. Duration                                 : 1 h 32 min
  112. Bit rate                                 : 45.4 kb/s
  113. Frame rate                               : 0.514 FPS
  114. Count of elements                        : 2856
  115. Stream size                              : 30.0 MiB (0%)
  116. Language                                 : English
  117. Default                                  : No
  118. Forced                                   : No
  119. Original source medium                   : Blu-ray
  120. Menu
  121. 00:00:00.000                             : en:Chapter 01
  122. 00:06:52.453                             : en:Chapter 02
  123. 00:13:57.086                             : en:Chapter 03
  124. 00:21:07.975                             : en:Chapter 04
  125. 00:26:52.652                             : en:Chapter 05
  126. 00:32:15.308                             : en:Chapter 06
  127. 00:44:03.432                             : en:Chapter 07
  128. 00:52:34.860                             : en:Chapter 08
  129. 01:00:59.697                             : en:Chapter 09
  130. 01:10:09.872                             : en:Chapter 10
  131. 01:21:18.290                             : en:Chapter 11
  132. 01:28:20.169                             : en:Chapter 12
复制代码

《报丧女妖 Code.Name.Banshee.2022.1080p.BluRay.REMUX.AVC.DTS-HD.MA.5.1-FGT 20.89GB》迅雷下载_BT种子 ...

《报丧女妖 Code.Name.Banshee.2022.1080p.BluRay.REMUX.AVC.DTS-HD.MA.5.1-FGT 20.89GB》迅雷下载_BT种子 ...

《报丧女妖 Code.Name.Banshee.2022.1080p.BluRay.REMUX.AVC.DTS-HD.MA.5.1-FGT 20.89GB》迅雷下载_BT种子 ...

《报丧女妖 Code.Name.Banshee.2022.1080p.BluRay.REMUX.AVC.DTS-HD.MA.5.1-FGT 20.89GB》迅雷下载_BT种子 ...



蓝光高清网提示您 点击下方附件即可下载

《报丧女妖 Code.Name.Banshee.2022.1080p.BluRay.REMUX.AVC.DTS-HD.MA.5.1-FGT 20.89GB》迅雷下载_BT种子下载www.4kii.com - 蓝光高清网 4kii.com

Code.Name.Banshee.2022.1080p.BluRay.REMUX.AVC.DTS-HD.MA.5.1-FGT.torrent ( 26.78 KB )

加入蓝光高清网VIP会员  无限制下载本站所有资源---点这里

资源下载、资源播放、字幕使用、无法下载等常见问题---点这里
回复

使用道具 举报

全部回复0 显示全部楼层

发表回复

您需要登录后才可以回帖 登录 | 立即注册

本版积分规则

开通会员 帮助中心 返回顶部 返回列表