本站已运行

蓝光高清网

搜索
开启左侧

[惊悚] 《喉恋 The.Climax.1944.1080p.BluRay.x264-ORBS 8.50GB》迅雷下载_4kii.com网 - 4kii.com

蓝鸟 发表于 2022-8-15 15:26:25 | 显示全部楼层 |阅读模式

《喉恋 The.Climax.1944.1080p.BluRay.x264-ORBS 8.50GB》迅雷下载_BT种子下载_蓝光高清 - 蓝光电影网 ...

《喉恋 The.Climax.1944.1080p.BluRay.x264-ORBS 8.50GB》迅雷下载_BT种子下载_蓝光高清 - 蓝光电影网 ...


标  题 喉恋
译  名 歌场怪人
片  名 The Climax
年  代 1944
产  地 美国
类  别 惊悚 / 恐怖 / 音乐
语  言 英语
上映日期 1944-10-20
IMDb评分 5.4/10 (850人评价)
片  长 86 分钟
导  演 乔治·瓦格纳 George Waggner
编  剧 科特· 西奥德梅克 Curt Siodmak
       林恩·斯塔林 Lynn Starling
       爱德华·洛克 Edward Locke
       乔治·瓦格纳 George Waggner
演  员 波利斯·卡洛夫 Boris Karloff
       苏珊娜·福斯特 Susanna Foster
       杜亨·贝 Turhan Bey
       盖尔·桑德加德 Gale Sondergaard
       托马斯·戈梅斯 Thomas Gomez
       琼·文森特 June Vincent
       乔治·多伦兹 George Dolenz
       路德维希·施托塞尔 Ludwig Stössel
       Ernö Verebes Ernö Verebes
       Lotte Stein Lotte Stein
       斯科蒂·贝克特 Scotty Beckett
       威廉·埃德蒙兹 William Edmunds
       厄尼·亚当斯 Ernie Adams
       格特鲁德·阿斯特 Gertrude Astor
       波莉·贝利 Polly Bailey
       Rudy Bowman Rudy Bowman
       安妮·康尼瓦尔 Anne Cornwall
       莫里斯·科斯特罗 Maurice Costello
       Grace Cunard Grace Cunard
       William Desmond William Desmond
       弗朗西斯·福特 Francis Ford
       Helen Gibson Helen Gibson
       斯图尔特·霍姆斯 Stuart Holmes
       Bella Lewitzky Bella Lewitzky
       Eric Mayne Eric Mayne
       Harry Mayo Harry Mayo
       Richard Neill Richard Neill
       威廉·H·奥布莱恩 William H. O''Brien
       Louis Payne Louis Payne
       Eddie Polo Eddie Polo
       Paul Power Paul Power
       Barry Regan Barry Regan
       Jack Richardson Jack Richardson
       乔治·瓦格纳 George Waggner
       爱德华·瓦尔德 Edward Ward
       哈尔·莫尔 Hal Mohr
       W·霍华德·格林 W. Howard Greene
       Russell F. Schoengarth Russell F. Schoengarth
       约翰·B·古德曼 John B. Goodman
       艾拉·韦布 Ira Webb
       罗素·A·盖斯曼 Russell A. Gausman
       亚历山大·高利思 Alexander Golitzen
       维拉·韦斯特 Vera West
       杰克 P. 皮尔斯 Jack P. Pierce
       Charles S. Gould Charles S. Gould
       约翰·P·富尔顿 John P. Fulton


影片参数
  1. Video
  2. ID                                       : 1
  3. Format                                   : AVC
  4. Format/Info                              : Advanced Video Codec
  5. Format profile                           : [email protected]
  6. Format settings                          : CABAC / 5 Ref Frames
  7. Format settings, CABAC                   : Yes
  8. Format settings, Reference frames        : 5 frames
  9. Codec ID                                 : V_MPEG4/ISO/AVC
  10. Duration                                 : 1 h 26 min
  11. Bit rate                                 : 13.4 Mb/s
  12. Width                                    : 1 480 pixels
  13. Height                                   : 1 080 pixels
  14. Display aspect ratio                     : 1.370
  15. Frame rate mode                          : Constant
  16. Frame rate                               : 23.976 (24000/1001/189150) FPS
  17. Color space                              : YUV
  18. Chroma subsampling                       : 4:2:0
  19. Bit depth                                : 8 bits
  20. Scan type                                : Progressive
  21. Bits/(Pixel*Frame)                       : 0.350
  22. Stream size                              : 8.06 GiB (95%)
  23. Writing library                          : x264 core 164 r3095 baee400
  24. Encoding settings                        : cabac=1 / ref=5 / deblock=1:-3:-3 / analyse=0x3:0x133 / me=umh / subme=10 / psy=1 / psy_rd=1.20:0.00 / mixed_ref=1 / me_range=24 / chroma_me=1 / trellis=2 / 8x8dct=1 / cqm=0 / deadzone=21,11 / fast_pskip=0 / chroma_qp_offset=-2 / threads=24 / lookahead_threads=4 / sliced_threads=0 / nr=0 / decimate=0 / interlaced=0 / bluray_compat=0 / constrained_intra=0 / bframes=8 / b_pyramid=2 / b_adapt=2 / b_bias=0 / direct=3 / weightb=1 / open_gop=0 / weightp=2 / keyint=250 / keyint_min=23 / scenecut=40 / intra_refresh=0 / rc_lookahead=60 / rc=crf / mbtree=1 / crf=21.0 / qcomp=0.60 / qpmin=0 / qpmax=69 / qpstep=4 / ip_ratio=1.40 / aq=3:0.90
  25. Default                                  : Yes
  26. Forced                                   : No
  27. Color range                              : Limited
  28. Matrix coefficients                      : BT.709

  29. Audio #1
  30. ID                                       : 2
  31. Format                                   : FLAC
  32. Format/Info                              : Free Lossless Audio Codec
  33. Codec ID                                 : A_FLAC
  34. Duration                                 : 1 h 26 min
  35. Bit rate mode                            : Variable
  36. Bit rate                                 : 622 kb/s
  37. Channel(s)                               : 2 channels
  38. Channel layout                           : L R
  39. Sampling rate                            : 48.0 kHz
  40. Frame rate                               : 11.719 FPS (4096 SPF)
  41. Bit depth                                : 24 bits
  42. Compression mode                         : Lossless
  43. Delay relative to video                  : 50 ms
  44. Stream size                              : 383 MiB (4%)
  45. Writing library                          : libFLAC 1.3.3 (UTC 2019-08-04)
  46. Language                                 : English
  47. Default                                  : Yes
  48. Forced                                   : No

  49. Audio #2
  50. ID                                       : 3
  51. Format                                   : AAC LC
  52. Format/Info                              : Advanced Audio Codec Low Complexity
  53. Codec ID                                 : A_AAC-2
  54. Duration                                 : 1 h 26 min
  55. Bit rate                                 : 91.8 kb/s
  56. Channel(s)                               : 2 channels
  57. Channel layout                           : L R
  58. Sampling rate                            : 48.0 kHz
  59. Frame rate                               : 46.875 FPS (1024 SPF)
  60. Compression mode                         : Lossy
  61. Delay relative to video                  : 6 ms
  62. Stream size                              : 56.5 MiB (1%)
  63. Title                                    : Commentary
  64. Language                                 : English
  65. Default                                  : No
  66. Forced                                   : No

  67. Text
  68. ID                                       : 4
  69. Format                                   : PGS
  70. Muxing mode                              : zlib
  71. Codec ID                                 : S_HDMV/PGS
  72. Codec ID/Info                            : Picture based subtitle format used on BDs/HD-DVDs
  73. Duration                                 : 1 h 25 min
  74. Bit rate                                 : 46.6 kb/s
  75. Count of elements                        : 2724
  76. Stream size                              : 28.5 MiB (0%)
  77. Title                                    : SDH
  78. Language                                 : English
  79. Default                                  : No
  80. Forced                                   : No

  81. Menu
  82. 00:00:00.000                             : Chapter 01
  83. 00:09:27.776                             : Chapter 02
  84. 00:18:53.633                             : Chapter 03
  85. 00:29:26.223                             : Chapter 04
  86. 00:38:32.977                             : Chapter 05
  87. 00:49:58.704                             : Chapter 06
  88. 01:00:05.268                             : Chapter 07
  89. 01:10:34.605                             : Chapter 08
复制代码

《喉恋 The.Climax.1944.1080p.BluRay.x264-ORBS 8.50GB》迅雷下载_BT种子下载_蓝光高清 - 蓝光电影网 ...

《喉恋 The.Climax.1944.1080p.BluRay.x264-ORBS 8.50GB》迅雷下载_BT种子下载_蓝光高清 - 蓝光电影网 ...



蓝光高清网提示您 点击下方附件即可下载

《喉恋 The.Climax.1944.1080p.BluRay.x264-ORBS 8.50GB》迅雷下载_BT种子下载www.4kii.com - 蓝光高清网 4kii.com

The.Climax.1944.1080p.BluRay.x264-ORBS.torrent ( 21.97 KB )

加入蓝光高清网VIP会员  无限制下载本站所有资源---点这里

资源下载、资源播放、字幕使用、无法下载等常见问题---点这里
回复

使用道具 举报

全部回复0 显示全部楼层

发表回复

您需要登录后才可以回帖 登录 | 立即注册

本版积分规则

开通会员 帮助中心 返回顶部 返回列表