本站已运行

蓝光高清网

搜索
开启左侧

[其他纪录片] 超级/自然/超/自然4k.Super.Natural.S01.2160p.DSNP.WEB-DL.x265.10bit.HDR.DDP5.1-4k纪录片下载

蓝鸟 发表于 2022-9-22 15:29:38 | 显示全部楼层 |阅读模式

超级/自然/超/自然4k.Super.Natural.S01.2160p.DSNP.WEB-DL.x265.10bit.HDR.DDP5.1-4k纪录片下载 ...

超级/自然/超/自然4k.Super.Natural.S01.2160p.DSNP.WEB-DL.x265.10bit.HDR.DDP5.1-4k纪录片下载 ...



影片参数
超级/自然/超/自然4k.Super.Natural.S01.2160p.DSNP.WEB-DL.x265.10bit.HDR.DDP5.1-4k纪录片信息
Video
ID : 1
Format : HEVC
Format/Info : High Efficiency Video Coding
Format profile : Main 10@L5@High
HDR format : SMPTE ST 2086, HDR10 compatible
Codec ID : V_MPEGH/ISO/HEVC
Duration : 46 min 49 s
Bit rate : 14.3 Mb/s
Width : 3 840 pixels
Height : 2 160 pixels
Display aspect ratio : 16:9
Frame rate mode : Constant
Frame rate : 23.976 (24000/1001) FPS
Color space : YUV
Chroma subsampling : 4:2:0
Bit depth : 10 bits
Bits/(Pixel*Frame) : 0.072
Stream size : 4.66 GiB (98%)
Language : English
Default : Yes
Forced : No
Color range : Limited
Color primaries : BT.2020
Transfer characteristics : PQ
Matrix coefficients : BT.2020 non-constant
Mastering display color primaries : Display P3
Mastering display luminance : min: 0.0010 cd/m2, max: 1000 cd/m2


Audio
ID : 2
Format : E-AC-3
Format/Info : Enhanced AC-3
Commercial name : Dolby Digital Plus
Codec ID : A_EAC3
Duration : 46 min 49 s
Bit rate mode : Constant
Bit rate : 256 kb/s
Channel(s) : 6 channels
Channel layout : L R C LFE Ls Rs
Sampling rate : 48.0 kHz
Frame rate : 31.250 FPS (1536 SPF)
Compression mode : Lossy
Stream size : 85.7 MiB (2%)
Language : English
Service kind : Complete Main
Default : Yes
Forced : No


Text #1
ID : 3
Format : UTF-8
Codec ID : S_TEXT/UTF8
Codec ID/Info : UTF-8 Plain Text
Duration : 46 min 39 s
Bit rate : 68 b/s
Frame rate : 0.201 FPS
Count of elements : 564
Stream size : 23.4 KiB (0%)
Title : English (SDH)
Language : English
Default : No
Forced : No


Text #2
ID : 4
Format : UTF-8
Codec ID : S_TEXT/UTF8
Codec ID/Info : UTF-8 Plain Text
Duration : 46 min 35 s
Bit rate : 59 b/s
Frame rate : 0.137 FPS
Count of elements : 383
Stream size : 20.3 KiB (0%)
Title : Čeština
Language : Czech
Default : No
Forced : No


Text #3
ID : 5
Format : UTF-8
Codec ID : S_TEXT/UTF8
Codec ID/Info : UTF-8 Plain Text
Duration : 46 min 35 s
Bit rate : 57 b/s
Frame rate : 0.138 FPS
Count of elements : 385
Stream size : 19.6 KiB (0%)
Title : Dansk
Language : Danish
Default : No
Forced : No


Text #4
ID : 6
Format : UTF-8
Codec ID : S_TEXT/UTF8
Codec ID/Info : UTF-8 Plain Text
Duration : 46 min 35 s
Bit rate : 72 b/s
Frame rate : 0.153 FPS
Count of elements : 427
Stream size : 24.8 KiB (0%)
Title : Deutsch
Language : German
Default : No
Forced : No


Text #5
ID : 7
Format : UTF-8
Codec ID : S_TEXT/UTF8
Codec ID/Info : UTF-8 Plain Text
Duration : 46 min 35 s
Bit rate : 102 b/s
Frame rate : 0.138 FPS
Count of elements : 386
Stream size : 35.0 KiB (0%)
Title : Greek
Language : Greek
Default : No
Forced : No


Text #6
ID : 8
Format : UTF-8
Codec ID : S_TEXT/UTF8
Codec ID/Info : UTF-8 Plain Text
Duration : 46 min 35 s
Bit rate : 62 b/s
Frame rate : 0.145 FPS
Count of elements : 405
Stream size : 21.4 KiB (0%)
Title : Español (Latinoamericano)
Language : Spanish
Default : No
Forced : No


Text #7
ID : 9
Format : UTF-8
Codec ID : S_TEXT/UTF8
Codec ID/Info : UTF-8 Plain Text
Duration : 46 min 35 s
Bit rate : 62 b/s
Frame rate : 0.138 FPS
Count of elements : 385
Stream size : 21.3 KiB (0%)
Title : Español
Language : Spanish
Default : No
Forced : No


Text #8
ID : 10
Format : UTF-8
Codec ID : S_TEXT/UTF8
Codec ID/Info : UTF-8 Plain Text
Duration : 46 min 35 s
Bit rate : 60 b/s
Frame rate : 0.137 FPS
Count of elements : 384
Stream size : 20.6 KiB (0%)
Title : Suomi
Language : Finnish
Default : No
Forced : No


Text #9
ID : 11
Format : UTF-8
Codec ID : S_TEXT/UTF8
Codec ID/Info : UTF-8 Plain Text
Duration : 46 min 35 s
Bit rate : 66 b/s
Frame rate : 0.147 FPS
Count of elements : 411
Stream size : 22.7 KiB (0%)
Title : Français
Language : French
Default : No
Forced : No


Text #10
ID : 12
Format : UTF-8
Codec ID : S_TEXT/UTF8
Codec ID/Info : UTF-8 Plain Text
Duration : 46 min 35 s
Bit rate : 63 b/s
Frame rate : 0.132 FPS
Count of elements : 369
Stream size : 21.7 KiB (0%)
Title : Magyar
Language : Hungarian
Default : No
Forced : No


Text #11
ID : 13
Format : UTF-8
Codec ID : S_TEXT/UTF8
Codec ID/Info : UTF-8 Plain Text
Duration : 46 min 35 s
Bit rate : 61 b/s
Frame rate : 0.138 FPS
Count of elements : 385
Stream size : 20.9 KiB (0%)
Title : Italiano
Language : Italian
Default : No
Forced : No


Text #12
ID : 14
Format : UTF-8
Codec ID : S_TEXT/UTF8
Codec ID/Info : UTF-8 Plain Text
Duration : 46 min 35 s
Bit rate : 54 b/s
Frame rate : 0.143 FPS
Count of elements : 400
Stream size : 18.6 KiB (0%)
Title : Japanese
Language : Japanese
Default : No
Forced : No


Text #13
ID : 15
Format : UTF-8
Codec ID : S_TEXT/UTF8
Codec ID/Info : UTF-8 Plain Text
Duration : 46 min 35 s
Bit rate : 58 b/s
Frame rate : 0.152 FPS
Count of elements : 424
Stream size : 19.9 KiB (0%)
Title : Korean
Language : Korean
Default : No
Forced : No


Text #14
ID : 16
Format : UTF-8
Codec ID : S_TEXT/UTF8
Codec ID/Info : UTF-8 Plain Text
Duration : 46 min 35 s
Bit rate : 49 b/s
Frame rate : 0.133 FPS
Count of elements : 373
Stream size : 16.8 KiB (0%)
Title : Nederlands
Language : Dutch
Default : No
Forced : No


Text #15
ID : 17
Format : UTF-8
Codec ID : S_TEXT/UTF8
Codec ID/Info : UTF-8 Plain Text
Duration : 46 min 35 s
Bit rate : 56 b/s
Frame rate : 0.138 FPS
Count of elements : 385
Stream size : 19.2 KiB (0%)
Title : Norsk
Language : Norwegian
Default : No
Forced : No


Text #16
ID : 18
Format : UTF-8
Codec ID : S_TEXT/UTF8
Codec ID/Info : UTF-8 Plain Text
Duration : 46 min 35 s
Bit rate : 56 b/s
Frame rate : 0.138 FPS
Count of elements : 386
Stream size : 19.2 KiB (0%)
Title : Polski
Language : Polish
Default : No
Forced : No


Text #17
ID : 19
Format : UTF-8
Codec ID : S_TEXT/UTF8
Codec ID/Info : UTF-8 Plain Text
Duration : 46 min 35 s
Bit rate : 60 b/s
Frame rate : 0.141 FPS
Count of elements : 393
Stream size : 20.8 KiB (0%)
Title : Português
Language : Portuguese
Default : No
Forced : No


Text #18
ID : 20
Format : UTF-8
Codec ID : S_TEXT/UTF8
Codec ID/Info : UTF-8 Plain Text
Duration : 46 min 35 s
Bit rate : 60 b/s
Frame rate : 0.140 FPS
Count of elements : 390
Stream size : 20.7 KiB (0%)
Title : Português (Brasil)
Language : Portuguese
Default : No
Forced : No


Text #19
ID : 21
Format : UTF-8
Codec ID : S_TEXT/UTF8
Codec ID/Info : UTF-8 Plain Text
Duration : 46 min 35 s
Bit rate : 64 b/s
Frame rate : 0.137 FPS
Count of elements : 383
Stream size : 21.8 KiB (0%)
Title : Romană
Language : Romanian
Default : No
Forced : No


Text #20
ID : 22
Format : UTF-8
Codec ID : S_TEXT/UTF8
Codec ID/Info : UTF-8 Plain Text
Duration : 46 min 35 s
Bit rate : 60 b/s
Frame rate : 0.138 FPS
Count of elements : 386
Stream size : 20.6 KiB (0%)
Title : Slovenčina
Language : Slovak
Default : No
Forced : No


Text #21
ID : 23
Format : UTF-8
Codec ID : S_TEXT/UTF8
Codec ID/Info : UTF-8 Plain Text
Duration : 46 min 35 s
Bit rate : 60 b/s
Frame rate : 0.138 FPS
Count of elements : 385
Stream size : 20.8 KiB (0%)
Title : Svenska
Language : Swedish
Default : No
Forced : No


Text #22
ID : 24
Format : UTF-8
Codec ID : S_TEXT/UTF8
Codec ID/Info : UTF-8 Plain Text
Duration : 46 min 35 s
Bit rate : 58 b/s
Frame rate : 0.138 FPS
Count of elements : 386
Stream size : 20.1 KiB (0%)
Title : Türkçe
Language : Turkish
Default : No
Forced : No


Text #23
ID : 25
Format : UTF-8
Codec ID : S_TEXT/UTF8
Codec ID/Info : UTF-8 Plain Text
Duration : 46 min 35 s
Bit rate : 41 b/s
Frame rate : 0.138 FPS
Count of elements : 386
Stream size : 14.2 KiB (0%)
Title : Chinese (Hong Kong)
Language : Chinese
Default : No
Forced : No


Text #24
ID : 26
Format : UTF-8
Codec ID : S_TEXT/UTF8
Codec ID/Info : UTF-8 Plain Text
Duration : 46 min 35 s
Bit rate : 41 b/s
Frame rate : 0.138 FPS
Count of elements : 386
Stream size : 14.0 KiB (0%)
Title : Chinese (Traditional)
Language : Chinese
Default : No
Forced : No


Text #25
ID : 27
Format : UTF-8
Codec ID : S_TEXT/UTF8
Codec ID/Info : UTF-8 Plain Text
Duration : 46 min 35 s
Bit rate : 41 b/s
Frame rate : 0.138 FPS
Count of elements : 386
Stream size : 14.3 KiB (0%)
Title : Chinese (Simplified)
Language : Chinese
Default : No
Forced : No

蓝光高清网蓝光高清网提示您 点击下方附件名称 即可开始下载


多版本下载时请注意区分


超级/自然/超/自然4k.Super.Natural.S01.2160p.DSNP.WEB-DL.x265.10bit.HDR.DDP5.1-4k纪录片下载

自然4k.Super.Natural.S01.2160p.DSNP.WEB-DL.x265.10bit.HDR.DDP5.1-简繁中字【26.44 GB】


自然4k.Super.Natural.S01.2160p.DSNP.WEB-DL.DDP5.1.DV.MP4.x265-简繁中字【杜比视界】【30.39 GB】


自然4k.Super.Natural.S01.2160p.DSNP.WEB-DL.DDP5.1.DV.MKV.x265-简繁中字【30.39 GB】



来源: 超级/自然/超/自然4k.Super.Natural.S01.2160p.DSNP.WEB-DL.x265.10bit.HDR.DDP5.1-4k纪录片下载
加入蓝光高清网VIP会员  无限制下载本站所有资源---点这里

资源下载、资源播放、字幕使用、无法下载等常见问题---点这里
回复

使用道具 举报

全部回复2 显示全部楼层
wangzhang3手机认证 发表于 2022-10-16 08:03:47 | 显示全部楼层
楼主辛苦了,谢谢分享
回复 支持 反对

使用道具 举报

热水滴 发表于 2022-10-26 10:28:51 | 显示全部楼层
细腻的手法拍摄,谢谢楼主分享。
回复 支持 反对

使用道具 举报

发表回复

您需要登录后才可以回帖 登录 | 立即注册

本版积分规则

开通会员 帮助中心 返回顶部 返回列表