本站已运行

蓝光高清网

搜索
开启左侧

[惊悚] 公牛 Bull.2021.1080p.BluRay.x264.DDP5.1-NOGRP 12.07GB

蓝鸟 发表于 2022-10-3 09:26:11 | 显示全部楼层 |阅读模式


标  题 公牛
片  名 Bull
年  代 2021
产  地 英国
类  别 惊悚
语  言 英语
上映日期 2021-08-06(幻想曲国际电影节) / 2021-11-05(英国)
IMDb评分 6.4/10 (1273人评价)
豆瓣评分 5.1/10 (174人评价)
片  长 88分钟
导  演 保罗·安德鲁·威廉姆斯 Paul Andrew Williams
编  剧 保罗·安德鲁·威廉姆斯 Paul Andrew Williams
演  员 塔姆金·奥斯威特 Tamzin Outhwaite
       尼尔·马斯克尔 Neil Maskell
       大卫·海曼 David Hayman

简  介

Bull mysteriously returns home after a 10 year absence to seek revenge on those who double crossed him all those years ago.


影片参数
  1. Video
  2. ID                                       : 1
  3. Format                                   : AVC
  4. Format/Info                              : Advanced Video Codec
  5. Format profile                           : [email protected]
  6. Format settings                          : CABAC / 5 Ref Frames
  7. Format settings, CABAC                   : Yes
  8. Format settings, Reference frames        : 5 frames
  9. Codec ID                                 : V_MPEG4/ISO/AVC
  10. Duration                                 : 1 h 27 min
  11. Bit rate                                 : 18.5 Mb/s
  12. Width                                    : 1 920 pixels
  13. Height                                   : 804 pixels
  14. Display aspect ratio                     : 2.40:1
  15. Frame rate mode                          : Constant
  16. Frame rate                               : 23.976 (24000/1001/189150) FPS
  17. Color space                              : YUV
  18. Chroma subsampling                       : 4:2:0
  19. Bit depth                                : 8 bits
  20. Scan type                                : Progressive
  21. Bits/(Pixel*Frame)                       : 0.499
  22. Stream size                              : 11.3 GiB (94%)
  23. Writing library                          : x264 core 164 r3098+49M
  24. Encoding settings                        : cabac=1 / ref=5 / deblock=1:-3:-3 / analyse=0x3:0x113 / me=umh / subme=10 / psy=1 / fade_compensate=0.00 / psy_rd=1.00:0.00 / mixed_ref=1 / me_range=32 / chroma_me=1 / trellis=2 / 8x8dct=1 / cqm=0 / deadzone=21,11 / fast_pskip=0 / chroma_qp_offset=-2 / threads=25 / lookahead_threads=6 / sliced_threads=0 / nr=0 / decimate=0 / interlaced=0 / bluray_compat=0 / constrained_intra=0 / fgo=0 / bframes=10 / b_pyramid=2 / b_adapt=2 / b_bias=0 / direct=3 / weightb=1 / open_gop=0 / weightp=2 / keyint=250 / keyint_min=23 / scenecut=40 / intra_refresh=0 / rc_lookahead=60 / rc=crf / mbtree=0 / crf=17.6000 / qcomp=0.60 / qpmin=0:0:0 / qpmax=69:69:69 / qpstep=4 / vbv_maxrate=62500 / vbv_bufsize=78125 / crf_max=0.0 / nal_hrd=none / filler=0 / ip_ratio=1.30 / pb_ratio=1.20 / aq=3:0.80 / aq-sensitivity=10.00 / aq-factor=1.00:1.00:1.00 / aq2=0 / aq3=0                          : English
  25. Default                                  : Yes
  26. Forced                                   : No
  27. Color range                              : Limited
  28. Color primaries                          : BT.709
  29. Transfer characteristics                 : BT.709
  30. Matrix coefficients                      : BT.709
  31. Audio #1
  32. ID                                       : 2
  33. Format                                   : E-AC-3
  34. Format/Info                              : Enhanced AC-3
  35. Commercial name                          : Dolby Digital Plus
  36. Codec ID                                 : A_EAC3
  37. Duration                                 : 1 h 27 min
  38. Bit rate mode                            : Constant
  39. Bit rate                                 : 1 024 kb/s
  40. Channel(s)                               : 6 channels
  41. Channel layout                           : L R C LFE Ls Rs
  42. Sampling rate                            : 48.0 kHz
  43. Frame rate                               : 31.250 FPS (1536 SPF)
  44. Compression mode                         : Lossy
  45. Stream size                              : 642 MiB (5%)
  46. Title                                    : E-AC3 DDP5.1 @ 10204kbs
  47. Language                                 : English
  48. Service kind                             : Complete Main
  49. Default                                  : Yes
  50. Forced                                   : No
  51. Audio #2
  52. ID                                       : 3
  53. Format                                   : AC-3
  54. Format/Info                              : Audio Coding 3
  55. Commercial name                          : Dolby Digital
  56. Codec ID                                 : A_AC3
  57. Duration                                 : 1 h 27 min
  58. Bit rate mode                            : Constant
  59. Bit rate                                 : 192 kb/s
  60. Channel(s)                               : 2 channels
  61. Channel layout                           : L R
  62. Sampling rate                            : 48.0 kHz
  63. Frame rate                               : 31.250 FPS (1536 SPF)
  64. Compression mode                         : Lossy
  65. Stream size                              : 120 MiB (1%)
  66. Title                                    : Commentary by writer/director Paul Andrew Williams & actor Neil Maskell
  67. Language                                 : English
  68. Service kind                             : Complete Main
  69. Default                                  : No
  70. Forced                                   : No
  71. Text #1
  72. ID                                       : 4
  73. Format                                   : UTF-8
  74. Codec ID                                 : S_TEXT/UTF8
  75. Codec ID/Info                            : UTF-8 Plain Text
  76. Duration                                 : 1 h 24 min
  77. Bit rate                                 : 41 b/s
  78. Frame rate                               : 0.198 FPS
  79. Count of elements                        : 1002
  80. Stream size                              : 25.4 KiB (0%)
  81. Title                                    : Full
  82. Language                                 : English
  83. Default                                  : No
  84. Forced                                   : No
  85. Text #2
  86. ID                                       : 5
  87. Format                                   : UTF-8
  88. Codec ID                                 : S_TEXT/UTF8
  89. Codec ID/Info                            : UTF-8 Plain Text
  90. Duration                                 : 1 h 26 min
  91. Bit rate                                 : 48 b/s
  92. Frame rate                               : 0.228 FPS
  93. Count of elements                        : 1187
  94. Stream size                              : 31.1 KiB (0%)
  95. Title                                    : SDH
  96. Language                                 : English
  97. Default                                  : No
  98. Forced                                   : No
  99. Text #3
  100. ID                                       : 6
  101. Format                                   : UTF-8
  102. Codec ID                                 : S_TEXT/UTF8
  103. Codec ID/Info                            : UTF-8 Plain Text
  104. Duration                                 : 1 h 21 min
  105. Bit rate                                 : 37 b/s
  106. Frame rate                               : 0.132 FPS
  107. Count of elements                        : 645
  108. Stream size                              : 22.3 KiB (0%)
  109. Language                                 : Danish
  110. Default                                  : No
  111. Forced                                   : No
  112. Text #4
  113. ID                                       : 7
  114. Format                                   : UTF-8
  115. Codec ID                                 : S_TEXT/UTF8
  116. Codec ID/Info                            : UTF-8 Plain Text
  117. Duration                                 : 1 h 21 min
  118. Bit rate                                 : 34 b/s
  119. Frame rate                               : 0.132 FPS
  120. Count of elements                        : 644
  121. Stream size                              : 20.8 KiB (0%)
  122. Language                                 : Finnish
  123. Default                                  : No
  124. Forced                                   : No
  125. Text #5
  126. ID                                       : 8
  127. Format                                   : UTF-8
  128. Codec ID                                 : S_TEXT/UTF8
  129. Codec ID/Info                            : UTF-8 Plain Text
  130. Duration                                 : 1 h 21 min
  131. Bit rate                                 : 36 b/s
  132. Frame rate                               : 0.132 FPS
  133. Count of elements                        : 645
  134. Stream size                              : 21.8 KiB (0%)
  135. Language                                 : Norwegian
  136. Default                                  : No
  137. Forced                                   : No
  138. Text #6
  139. ID                                       : 9
  140. Format                                   : UTF-8
  141. Codec ID                                 : S_TEXT/UTF8
  142. Codec ID/Info                            : UTF-8 Plain Text
  143. Duration                                 : 1 h 21 min
  144. Bit rate                                 : 38 b/s
  145. Frame rate                               : 0.132 FPS
  146. Count of elements                        : 645
  147. Stream size                              : 22.7 KiB (0%)
  148. Language                                 : Swedish
  149. Default                                  : No
  150. Forced                                   : No
  151. Menu
  152. 00:00:00.000                             : en:Chapter 01
  153. 00:07:07.469                             : en:Chapter 02
  154. 00:14:26.574                             : en:Chapter 03
  155. 00:20:54.837                             : en:Chapter 04
  156. 00:28:58.487                             : en:Chapter 05
  157. 00:37:01.761                             : en:Chapter 06
  158. 00:42:41.976                             : en:Chapter 07
  159. 00:51:13.279                             : en:Chapter 08
  160. 00:58:56.908                             : en:Chapter 09
  161. 01:05:29.551                             : en:Chapter 10
  162. 01:13:58.476                             : en:Chapter 11
  163. 01:20:10.556                             : en:Chapter 12
复制代码



蓝光高清网提示您 点击下方附件即可下载

公牛 Bull.2021.1080p.BluRay.x264.DDP5.1-NOGRP 12.07GB

Bull.2021.1080p.BluRay.x264.DDP5.1-NOGRP.torrent ( 15.7 KB )

加入蓝光高清网VIP会员  无限制下载本站所有资源---点这里

资源下载、资源播放、字幕使用、无法下载等常见问题---点这里
回复

使用道具 举报

全部回复0 显示全部楼层

发表回复

您需要登录后才可以回帖 登录 | 立即注册

本版积分规则

开通会员 帮助中心 返回顶部 返回列表