本站已运行

蓝光高清网

搜索
开启左侧

[恐怖] 吵闹鬼 Poltergeist.1982.REMASTERED.1080p.BluRay.x264-OLDTiME 16.08GB

蓝鸟 发表于 2022-10-3 09:29:17 | 显示全部楼层 |阅读模式


标  题 吵闹鬼
译  名 鬼驱人 / 鬼哭神嚎
片  名 Poltergeist
年  代 1982
产  地 美国
类  别 恐怖 / 奇幻
语  言 英语
上映日期 1982-06-04(美国)
IMDb评分 7.3/10 (154907人评价)
豆瓣评分 6.8/10 (1995人评价)
片  长 114 分钟
导  演 托比·霍珀 Tobe Hooper
       迈克尔·卡恩 Michael Kahn
编  剧 史蒂文·斯皮尔伯格 Steven Spielberg
演  员 格雷格·T·尼尔森 Craig T. Nelson
       乔贝兹·威廉姆斯 JoBeth Williams
       比阿特丽斯·斯特雷特 Beatrice Straight
       多米妮克·邓恩 Dominique Dunne
       奥利弗·罗宾斯 Oliver Robins
       赛尔达·鲁宾斯特恩 Zelda Rubinstein
       詹姆斯·凯伦 James Karen
       海瑟·欧罗克 Heather O''Rourke
       Michael McManus Michael McManus
       维吉妮娅·凯泽 Virginia Kiser
       理查德·劳森 Richard Lawson
       卢·佩里曼 Lou Perryman
       德克·布罗克 Dirk Blocker
       阿兰·格拉夫 Allan Graf
标  签 恐怖 / 美国 / 惊悚 / 斯皮尔伯格 / 1982 / 美国电影 / 1980s / StevenSpielberg

简  介

事业有成、意气风发的史蒂文•弗瑞林(Craig T. Nelson 饰)带着妻子戴安(JoBeth Williams 饰)和三个孩子搬进了加利福尼亚某郊外社区。但在入住不久,怪事便频繁发生。先是小女儿卡萝(Heather O''Rourke 饰)梦游,对着自动开启漫屏雪花的电视机自言自语。接着便又不明物体从电视机中飘出,莫名的地震,破碎的玻璃杯……如此种种,搅得弗瑞林一家坐卧不定。过了不久,恐怖事件逐渐升级,卡萝最终竟被拉入电视机中……                                                                      本片荣获1983年美国科幻恐怖电影节最佳恐怖片、最佳化装和最佳女配角(Zelda Rubinstein)三个奖项;1983年英国电视与电影协会最佳特效奖。


影片参数
  1. Video
  2. ID                                       : 1
  3. Format                                   : AVC
  4. Format/Info                              : Advanced Video Codec
  5. Format profile                           : [email protected]
  6. Format settings                          : CABAC / 5 Ref Frames
  7. Format settings, CABAC                   : Yes
  8. Format settings, Reference frames        : 5 frames
  9. Codec ID                                 : V_MPEG4/ISO/AVC
  10. Duration                                 : 1 h 54 min
  11. Bit rate                                 : 16.5 Mb/s
  12. Width                                    : 1 920 pixels
  13. Height                                   : 804 pixels
  14. Display aspect ratio                     : 2.40:1
  15. Frame rate mode                          : Constant
  16. Frame rate                               : 23.976 (24000/1001/189150) FPS
  17. Color space                              : YUV
  18. Chroma subsampling                       : 4:2:0
  19. Bit depth                                : 8 bits
  20. Scan type                                : Progressive
  21. Bits/(Pixel*Frame)                       : 0.447
  22. Stream size                              : 13.2 GiB (82%)
  23. Writing library                          : x264 core 164 r3098 7628a56
  24. Encoding settings                        : cabac=1 / ref=5 / deblock=1:-3:-3 / analyse=0x3:0x133 / me=umh / subme=9 / psy=1 / psy_rd=1.00:0.00 / mixed_ref=1 / me_range=16 / chroma_me=1 / trellis=2 / 8x8dct=1 / cqm=0 / deadzone=21,11 / fast_pskip=0 / chroma_qp_offset=-2 / threads=25 / lookahead_threads=2 / sliced_threads=0 / nr=0 / decimate=1 / interlaced=0 / bluray_compat=0 / constrained_intra=0 / bframes=3 / b_pyramid=2 / b_adapt=2 / b_bias=0 / direct=3 / weightb=1 / open_gop=0 / weightp=2 / keyint=250 / keyint_min=23 / scenecut=40 / intra_refresh=0 / rc_lookahead=60 / rc=crf / mbtree=1 / crf=18.5 / qcomp=0.60 / qpmin=0 / qpmax=69 / qpstep=4 / ip_ratio=1.40 / aq=1:1.00
  25. Language                                 : English
  26. Default                                  : Yes
  27. Forced                                   : No

  28. Audio
  29. ID                                       : 2
  30. Format                                   : DTS XLL
  31. Format/Info                              : Digital Theater Systems
  32. Commercial name                          : DTS-HD Master Audio
  33. Codec ID                                 : A_DTS
  34. Duration                                 : 1 h 54 min
  35. Bit rate mode                            : Variable
  36. Bit rate                                 : 3 481 kb/s
  37. Channel(s)                               : 6 channels
  38. Channel layout                           : C L R Ls Rs LFE
  39. Sampling rate                            : 48.0 kHz
  40. Frame rate                               : 93.750 FPS (512 SPF)
  41. Bit depth                                : 24 bits
  42. Compression mode                         : Lossless
  43. Stream size                              : 2.78 GiB (17%)
  44. Language                                 : English
  45. Default                                  : Yes
  46. Forced                                   : No

  47. Text #1
  48. ID                                       : 3
  49. ID in the original source medium         : 4608 (0x1200)
  50. Format                                   : PGS
  51. Muxing mode                              : zlib
  52. Codec ID                                 : S_HDMV/PGS
  53. Codec ID/Info                            : Picture based subtitle format used on BDs/HD-DVDs
  54. Duration                                 : 1 h 53 min
  55. Bit rate                                 : 32.6 kb/s
  56. Count of elements                        : 2902
  57. Stream size                              : 26.6 MiB (0%)
  58. Language                                 : English
  59. Default                                  : No
  60. Forced                                   : No
  61. Original source medium                   : Blu-ray

  62. Text #2
  63. ID                                       : 4
  64. ID in the original source medium         : 4609 (0x1201)
  65. Format                                   : PGS
  66. Muxing mode                              : zlib
  67. Codec ID                                 : S_HDMV/PGS
  68. Codec ID/Info                            : Picture based subtitle format used on BDs/HD-DVDs
  69. Duration                                 : 1 h 50 min
  70. Bit rate                                 : 18.7 kb/s
  71. Count of elements                        : 1818
  72. Stream size                              : 14.8 MiB (0%)
  73. Language                                 : French
  74. Default                                  : No
  75. Forced                                   : No
  76. Original source medium                   : Blu-ray

  77. Text #3
  78. ID                                       : 5
  79. ID in the original source medium         : 4610 (0x1202)
  80. Format                                   : PGS
  81. Muxing mode                              : zlib
  82. Codec ID                                 : S_HDMV/PGS
  83. Codec ID/Info                            : Picture based subtitle format used on BDs/HD-DVDs
  84. Duration                                 : 1 h 46 min
  85. Bit rate                                 : 28.6 kb/s
  86. Count of elements                        : 2628
  87. Stream size                              : 21.7 MiB (0%)
  88. Language                                 : German
  89. Default                                  : No
  90. Forced                                   : No
  91. Original source medium                   : Blu-ray

  92. Text #4
  93. ID                                       : 6
  94. ID in the original source medium         : 4611 (0x1203)
  95. Format                                   : PGS
  96. Muxing mode                              : zlib
  97. Codec ID                                 : S_HDMV/PGS
  98. Codec ID/Info                            : Picture based subtitle format used on BDs/HD-DVDs
  99. Duration                                 : 1 h 53 min
  100. Bit rate                                 : 28.9 kb/s
  101. Count of elements                        : 2920
  102. Stream size                              : 23.5 MiB (0%)
  103. Language                                 : Italian
  104. Default                                  : No
  105. Forced                                   : No
  106. Original source medium                   : Blu-ray

  107. Text #5
  108. ID                                       : 7
  109. ID in the original source medium         : 4612 (0x1204)
  110. Format                                   : PGS
  111. Muxing mode                              : zlib
  112. Codec ID                                 : S_HDMV/PGS
  113. Codec ID/Info                            : Picture based subtitle format used on BDs/HD-DVDs
  114. Duration                                 : 1 h 46 min
  115. Bit rate                                 : 26.5 kb/s
  116. Count of elements                        : 2180
  117. Stream size                              : 20.1 MiB (0%)
  118. Language                                 : Spanish
  119. Default                                  : No
  120. Forced                                   : No
  121. Original source medium                   : Blu-ray

  122. Text #6
  123. ID                                       : 8
  124. ID in the original source medium         : 4613 (0x1205)
  125. Format                                   : PGS
  126. Muxing mode                              : zlib
  127. Codec ID                                 : S_HDMV/PGS
  128. Codec ID/Info                            : Picture based subtitle format used on BDs/HD-DVDs
  129. Duration                                 : 1 h 45 min
  130. Bit rate                                 : 20.5 kb/s
  131. Count of elements                        : 1448
  132. Stream size                              : 15.5 MiB (0%)
  133. Language                                 : Dutch
  134. Default                                  : No
  135. Forced                                   : No
  136. Original source medium                   : Blu-ray

  137. Text #7
  138. ID                                       : 9
  139. ID in the original source medium         : 4614 (0x1206)
  140. Format                                   : PGS
  141. Muxing mode                              : zlib
  142. Codec ID                                 : S_HDMV/PGS
  143. Codec ID/Info                            : Picture based subtitle format used on BDs/HD-DVDs
  144. Duration                                 : 1 h 53 min
  145. Bit rate                                 : 25.8 kb/s
  146. Count of elements                        : 2236
  147. Stream size                              : 21.0 MiB (0%)
  148. Language                                 : Spanish
  149. Default                                  : No
  150. Forced                                   : No
  151. Original source medium                   : Blu-ray

  152. Text #8
  153. ID                                       : 10
  154. ID in the original source medium         : 4615 (0x1207)
  155. Format                                   : PGS
  156. Muxing mode                              : zlib
  157. Codec ID                                 : S_HDMV/PGS
  158. Codec ID/Info                            : Picture based subtitle format used on BDs/HD-DVDs
  159. Duration                                 : 1 h 53 min
  160. Bit rate                                 : 25.0 kb/s
  161. Count of elements                        : 2254
  162. Stream size                              : 20.4 MiB (0%)
  163. Language                                 : Portuguese
  164. Default                                  : No
  165. Forced                                   : No
  166. Original source medium                   : Blu-ray

  167. Text #9
  168. ID                                       : 11
  169. ID in the original source medium         : 4616 (0x1208)
  170. Format                                   : PGS
  171. Muxing mode                              : zlib
  172. Codec ID                                 : S_HDMV/PGS
  173. Codec ID/Info                            : Picture based subtitle format used on BDs/HD-DVDs
  174. Duration                                 : 1 h 46 min
  175. Bit rate                                 : 25.2 kb/s
  176. Count of elements                        : 2128
  177. Stream size                              : 19.1 MiB (0%)
  178. Language                                 : Danish
  179. Default                                  : No
  180. Forced                                   : No
  181. Original source medium                   : Blu-ray

  182. Text #10
  183. ID                                       : 12
  184. ID in the original source medium         : 4617 (0x1209)
  185. Format                                   : PGS
  186. Muxing mode                              : zlib
  187. Codec ID                                 : S_HDMV/PGS
  188. Codec ID/Info                            : Picture based subtitle format used on BDs/HD-DVDs
  189. Duration                                 : 1 h 46 min
  190. Bit rate                                 : 25.6 kb/s
  191. Count of elements                        : 2284
  192. Stream size                              : 19.4 MiB (0%)
  193. Language                                 : Finnish
  194. Default                                  : No
  195. Forced                                   : No
  196. Original source medium                   : Blu-ray

  197. Text #11
  198. ID                                       : 13
  199. ID in the original source medium         : 4618 (0x120A)
  200. Format                                   : PGS
  201. Muxing mode                              : zlib
  202. Codec ID                                 : S_HDMV/PGS
  203. Codec ID/Info                            : Picture based subtitle format used on BDs/HD-DVDs
  204. Duration                                 : 1 h 46 min
  205. Bit rate                                 : 23.9 kb/s
  206. Count of elements                        : 2317
  207. Stream size                              : 18.1 MiB (0%)
  208. Language                                 : Norwegian
  209. Default                                  : No
  210. Forced                                   : No
  211. Original source medium                   : Blu-ray

  212. Text #12
  213. ID                                       : 14
  214. ID in the original source medium         : 4619 (0x120B)
  215. Format                                   : PGS
  216. Muxing mode                              : zlib
  217. Codec ID                                 : S_HDMV/PGS
  218. Codec ID/Info                            : Picture based subtitle format used on BDs/HD-DVDs
  219. Duration                                 : 1 h 46 min
  220. Bit rate                                 : 22.8 kb/s
  221. Count of elements                        : 1542
  222. Stream size                              : 17.3 MiB (0%)
  223. Language                                 : Swedish
  224. Default                                  : No
  225. Forced                                   : No
  226. Original source medium                   : Blu-ray

  227. Text #13
  228. ID                                       : 15
  229. ID in the original source medium         : 4620 (0x120C)
  230. Format                                   : PGS
  231. Muxing mode                              : zlib
  232. Codec ID                                 : S_HDMV/PGS
  233. Codec ID/Info                            : Picture based subtitle format used on BDs/HD-DVDs
  234. Duration                                 : 2 s 878 ms
  235. Bit rate                                 : 15.6 kb/s
  236. Count of elements                        : 2
  237. Stream size                              : 5.48 KiB (0%)
  238. Language                                 : French
  239. Default                                  : No
  240. Forced                                   : No
  241. Original source medium                   : Blu-ray

  242. Text #14
  243. ID                                       : 16
  244. ID in the original source medium         : 4621 (0x120D)
  245. Format                                   : PGS
  246. Muxing mode                              : zlib
  247. Codec ID                                 : S_HDMV/PGS
  248. Codec ID/Info                            : Picture based subtitle format used on BDs/HD-DVDs
  249. Duration                                 : 1 h 43 min
  250. Bit rate                                 : 292 b/s
  251. Count of elements                        : 24
  252. Stream size                              : 222 KiB (0%)
  253. Language                                 : German
  254. Default                                  : No
  255. Forced                                   : No
  256. Original source medium                   : Blu-ray

  257. Text #15
  258. ID                                       : 17
  259. ID in the original source medium         : 4622 (0x120E)
  260. Format                                   : PGS
  261. Muxing mode                              : zlib
  262. Codec ID                                 : S_HDMV/PGS
  263. Codec ID/Info                            : Picture based subtitle format used on BDs/HD-DVDs
  264. Duration                                 : 1 h 43 min
  265. Bit rate                                 : 324 b/s
  266. Count of elements                        : 29
  267. Stream size                              : 246 KiB (0%)
  268. Language                                 : Italian
  269. Default                                  : No
  270. Forced                                   : No
  271. Original source medium                   : Blu-ray

  272. Text #16
  273. ID                                       : 18
  274. ID in the original source medium         : 4623 (0x120F)
  275. Format                                   : PGS
  276. Muxing mode                              : zlib
  277. Codec ID                                 : S_HDMV/PGS
  278. Codec ID/Info                            : Picture based subtitle format used on BDs/HD-DVDs
  279. Duration                                 : 1 h 43 min
  280. Bit rate                                 : 311 b/s
  281. Count of elements                        : 30
  282. Stream size                              : 237 KiB (0%)
  283. Language                                 : Spanish
  284. Default                                  : No
  285. Forced                                   : No
  286. Original source medium                   : Blu-ray

  287. Text #17
  288. ID                                       : 19
  289. ID in the original source medium         : 4624 (0x1210)
  290. Format                                   : PGS
  291. Muxing mode                              : zlib
  292. Codec ID                                 : S_HDMV/PGS
  293. Codec ID/Info                            : Picture based subtitle format used on BDs/HD-DVDs
  294. Duration                                 : 41 min 15 s
  295. Bit rate                                 : 373 b/s
  296. Count of elements                        : 6
  297. Stream size                              : 113 KiB (0%)
  298. Language                                 : Spanish
  299. Default                                  : No
  300. Forced                                   : No
  301. Original source medium                   : Blu-ray

  302. Text #18
  303. ID                                       : 20
  304. ID in the original source medium         : 4625 (0x1211)
  305. Format                                   : PGS
  306. Muxing mode                              : zlib
  307. Codec ID                                 : S_HDMV/PGS
  308. Codec ID/Info                            : Picture based subtitle format used on BDs/HD-DVDs
  309. Duration                                 : 1 h 34 min
  310. Bit rate                                 : 77 b/s
  311. Count of elements                        : 8
  312. Stream size                              : 54.1 KiB (0%)
  313. Language                                 : Portuguese
  314. Default                                  : No
  315. Forced                                   : No
  316. Original source medium                   : Blu-ray

  317. Menu
  318. 00:00:00.000                             : en:Chapter 01
  319. 00:04:38.278                             : en:Chapter 02
  320. 00:07:00.253                             : en:Chapter 03
  321. 00:11:45.079                             : en:Chapter 04
  322. 00:16:44.378                             : en:Chapter 05
  323. 00:21:24.617                             : en:Chapter 06
  324. 00:24:33.305                             : en:Chapter 07
  325. 00:28:43.055                             : en:Chapter 08
  326. 00:34:14.427                             : en:Chapter 09
  327. 00:37:15.733                             : en:Chapter 10
  328. 00:42:46.063                             : en:Chapter 11
  329. 00:45:46.619                             : en:Chapter 12
  330. 00:50:25.522                             : en:Chapter 13
  331. 00:53:34.711                             : en:Chapter 14
  332. 00:59:45.290                             : en:Chapter 15
  333. 01:03:12.122                             : en:Chapter 16
  334. 01:07:23.706                             : en:Chapter 17
  335. 01:11:13.436                             : en:Chapter 18
  336. 01:14:10.613                             : en:Chapter 19
  337. 01:16:40.596                             : en:Chapter 20
  338. 01:22:01.250                             : en:Chapter 21
  339. 01:24:56.425                             : en:Chapter 22
  340. 01:29:05.674                             : en:Chapter 23
  341. 01:33:02.911                             : en:Chapter 24
  342. 01:35:36.898                             : en:Chapter 25
  343. 01:38:55.930                             : en:Chapter 26
  344. 01:42:17.965                             : en:Chapter 27
  345. 01:45:47.341                             : en:Chapter 28
  346. 01:47:38.285                             : en:Chapter 29
  347. 01:49:40.407                             : en:Chapter 30
复制代码



蓝光高清网提示您 点击下方附件即可下载

吵闹鬼 Poltergeist.1982.REMASTERED.1080p.BluRay.x264-OLDTiME 16.08GB

Poltergeist.1982.REMASTERED.1080p.BluRay.x264-OLDTiME.torrent ( 20.87 KB )

加入蓝光高清网VIP会员  无限制下载本站所有资源---点这里

资源下载、资源播放、字幕使用、无法下载等常见问题---点这里
回复

使用道具 举报

全部回复0 显示全部楼层

发表回复

您需要登录后才可以回帖 登录 | 立即注册

本版积分规则

开通会员 帮助中心 返回顶部 返回列表